<?xml version="1.0" standalone="no"?>
<!DOCTYPE svg PUBLIC "-//W3C//DTD SVG 1.1//EN" "http://www.w3.org/Graphics/SVG/1.1/DTD/svg11.dtd" >
<svg xmlns="http://www.w3.org/2000/svg">
<metadata></metadata>
<defs>
<font id="ubuntu_monoregular" horiz-adv-x="1024" >
<font-face units-per-em="2048" ascent="1638" descent="-410" />
<missing-glyph horiz-adv-x="500" />
<glyph unicode="&#xd;" />
<glyph />
<glyph />
<glyph unicode=" " />
<glyph unicode="!" d="M371 115q0 63 41 101t96 38q57 0 97 -38t40 -101t-40 -101.5t-97 -38.5q-55 0 -96 38t-41 102zM418 924v344h182v-344q0 -76 -2 -139.5t-7 -121t-11.5 -113.5t-12.5 -118h-116q-6 61 -12.5 117.5t-11.5 114t-7 121t-2 139.5z" />
<glyph unicode="&#x22;" d="M264 1300v91h158v-93q0 -90 -10.5 -205.5t-26.5 -211.5h-86q-14 96 -24.5 211.5t-10.5 207.5zM602 1300v91h158v-93q0 -90 -10.5 -205.5t-24.5 -211.5h-86q-16 96 -26.5 211.5t-10.5 207.5z" />
<glyph unicode="#" d="M55 334v137h158l61 326h-219v135h248l64 336h153l-63 -336h227l61 336h154l-61 -336h131v-135h-158l-63 -326h221v-137h-248l-64 -334h-153l63 334h-227l-64 -334h-153l63 334h-131zM367 471h225l63 326h-225z" />
<glyph unicode="$" d="M111 106l45 142q55 -27 130.5 -50.5t190.5 -23.5q74 0 124 11.5t79 33t41 51t12 64.5q0 51 -24.5 87t-66.5 63.5t-95 49t-111 41.5q-55 20 -109.5 45t-96.5 61t-68.5 86t-26.5 124q0 131 78 213t225 104v211h152v-205q82 -4 150.5 -19t109.5 -32l-35 -143 q-43 16 -108.5 33.5t-165.5 17.5q-111 0 -169.5 -41t-58.5 -119q0 -43 17.5 -71.5t50.5 -51t77 -41t99 -38.5q70 -27 135.5 -56.5t114.5 -70.5t78.5 -98.5t29.5 -137.5q0 -121 -79.5 -205t-245.5 -104v-236h-152v230q-129 4 -208.5 28.5t-118.5 46.5z" />
<glyph unicode="%" d="M37 977q0 156 59.5 236.5t163.5 80.5t163.5 -80.5t59.5 -236.5t-59 -238t-164 -82q-104 0 -163.5 82t-59.5 238zM51 0l776 1268h144l-776 -1268h-144zM162 977q0 -92 25.5 -151.5t72.5 -59.5t71.5 59.5t24.5 151.5t-24.5 151.5t-71.5 59.5t-72.5 -59.5t-25.5 -151.5z M543 291q0 156 58 236.5t163 80.5q104 0 163.5 -81t59.5 -236q0 -156 -59.5 -237t-163.5 -81t-162.5 81t-58.5 237zM668 291q0 -92 24.5 -151.5t71.5 -59.5t72.5 59.5t25.5 151.5t-25.5 151.5t-72.5 59.5t-71.5 -59.5t-24.5 -151.5z" />
<glyph unicode="&#x26;" d="M63 309q0 96 50.5 194.5t158.5 182.5q-53 72 -85.5 145.5t-32.5 151.5q0 80 25.5 139.5t68.5 97t99 57t116 19.5q53 0 104 -16t90 -50t62.5 -83t23.5 -113q0 -94 -61 -193.5t-195 -183.5l70 -77q35 -41 73 -83t77 -89q16 57 28.5 124.5t18.5 149.5l141 -18 q-12 -119 -35.5 -212.5t-58.5 -168.5q47 -66 90 -135.5t78 -147.5h-178q-35 72 -78 137q-66 -82 -147 -117.5t-169 -35.5q-78 0 -139 25.5t-104 70.5t-67 104.5t-24 124.5zM233 326q0 -80 41 -132.5t100.5 -65.5t129 16.5t127.5 111.5q-68 92 -140.5 171t-138.5 157 q-59 -53 -89 -123t-30 -135zM313 995q0 -59 18.5 -110t78.5 -129q98 61 139 131t41 129q0 74 -40 110.5t-91 36.5q-53 0 -99.5 -42t-46.5 -126z" />
<glyph unicode="'" d="M422 1300v91h178v-93q0 -45 -3 -103t-8 -120.5t-11.5 -123t-14.5 -107.5h-104q-8 47 -14.5 107.5t-11.5 123t-8 121.5t-3 104z" />
<glyph unicode="(" d="M231 549q0 254 117 485.5t350 401.5l90 -123h-2q-190 -147 -290.5 -340t-100.5 -420q0 -115 23.5 -217.5t72 -196.5t123 -182t177.5 -176l-93 -123q-236 174 -351.5 404.5t-115.5 486.5z" />
<glyph unicode=")" d="M231 1313l93 123q236 -174 351.5 -404.5t115.5 -486.5q0 -127 -30 -250t-88.5 -236.5t-145.5 -215t-203 -185.5l-91 123h3q190 147 291.5 339.5t101.5 420.5q0 115 -23.5 217t-73 196.5t-124 182.5t-177.5 176z" />
<glyph unicode="*" d="M117 915l55 168l14 -6q72 -29 144.5 -63.5t138.5 -71.5q-16 74 -29.5 154t-13.5 157v15h176v-15q0 -78 -13.5 -157.5t-29.5 -153.5q66 39 137.5 73t143.5 60l14 6l53 -168l-12 -4q-74 -23 -152.5 -35t-154.5 -20q55 -51 114.5 -107.5t100.5 -119.5l8 -11l-143 -104 l-11 12q-43 61 -77.5 134t-65.5 141q-33 -68 -67.5 -140.5t-81.5 -134.5l-11 -10l-141 102l10 13q45 63 102.5 118.5t112.5 106.5q-76 10 -155.5 21.5t-151.5 35.5z" />
<glyph unicode="+" d="M94 467v143h344v377h148v-377h346v-143h-346v-379h-148v379h-344z" />
<glyph unicode="," d="M305 -162q37 8 73 16.5t66.5 24t55 39t39.5 64.5q-66 6 -95.5 50t-29.5 87q0 82 46 124t105 42q76 0 115 -54.5t39 -132.5q0 -59 -23.5 -123.5t-72 -121t-120 -96.5t-169.5 -52z" />
<glyph unicode="-" d="M287 440v160h450v-160h-450z" />
<glyph unicode="." d="M362 131q0 63 41 110.5t111 47.5q68 0 109 -47.5t41 -110.5q0 -61 -41 -108.5t-109 -47.5q-70 0 -111 47.5t-41 108.5z" />
<glyph unicode="/" d="M141 -338l572 1770h170l-568 -1770h-174z" />
<glyph unicode="0" d="M94 635q0 319 109.5 490t308.5 171q201 0 309.5 -171t108.5 -490t-108.5 -490.5t-309.5 -171.5q-199 0 -308.5 171.5t-109.5 490.5zM266 635q0 -104 12.5 -197.5t41 -163t75.5 -110.5t117 -41t117 41t75.5 110.5t41 163t12.5 197.5t-12.5 197.5t-41 163t-75.5 110.5 t-117 41t-117 -41t-75.5 -110.5t-41 -163t-12.5 -197.5zM397 657q0 53 33 94.5t86 41.5q51 0 83 -41.5t32 -94.5t-32 -92t-83 -39q-53 0 -86 39t-33 92z" />
<glyph unicode="1" d="M154 1006q104 41 202.5 103t182.5 159h118v-1125h240v-143h-682v143h274v889q-23 -20 -54.5 -41.5t-69 -42t-78.5 -39t-80 -30.5z" />
<glyph unicode="2" d="M117 1145q16 18 49 45t79 50.5t103.5 39.5t122.5 16q199 0 294 -91t95 -261q0 -66 -25.5 -127t-67.5 -120.5t-95.5 -117t-108.5 -112.5q-31 -31 -71.5 -74t-77.5 -88t-61.5 -88t-24.5 -74h583v-143h-768q-2 10 -2 21.5v21.5q0 86 29 159.5t74 139.5t101 124t112 114 q45 45 87 88t73.5 86t51 89t19.5 95q0 55 -17.5 94t-47 64.5t-68.5 38t-84 12.5q-53 0 -97 -14.5t-78 -35t-58.5 -40t-36.5 -31.5z" />
<glyph unicode="3" d="M121 39l33 145q33 -16 104.5 -38.5t175.5 -22.5q162 0 230.5 64.5t68.5 172.5q0 70 -28.5 117t-75.5 76t-108.5 41t-129.5 12h-43v137h60q45 0 93 9.5t88 33t64.5 64.5t24.5 104q0 104 -64.5 148.5t-150.5 44.5q-88 0 -149.5 -25.5t-102.5 -52.5l-66 129q43 31 130 64.5 t194 33.5q100 0 172 -24.5t118 -69.5t68.5 -105.5t22.5 -131.5q0 -100 -52.5 -170t-133.5 -107q98 -29 169.5 -111.5t71.5 -220.5q0 -82 -27.5 -152.5t-84 -121.5t-145.5 -80t-212 -29q-47 0 -97 7.5t-93 18.5t-77 22.5t-48 17.5z" />
<glyph unicode="4" d="M74 324v114q35 82 95 188.5t136 220.5t162 223.5t174 197.5h164v-805h149v-139h-149v-324h-164v324h-567zM238 463h403v604q-55 -59 -111.5 -131t-109.5 -150.5t-99.5 -160.5t-82.5 -162z" />
<glyph unicode="5" d="M135 39l33 145q33 -16 101.5 -38.5t172.5 -22.5q82 0 137.5 18.5t89 50t49 72.5t15.5 86q0 70 -23.5 124t-82 91t-159.5 56.5t-255 19.5q12 90 19.5 169t12.5 153.5t8 148.5t7 156h610v-144h-462q-2 -29 -5.5 -74.5t-7.5 -97t-8 -98.5t-6 -76q274 -10 399 -120.5 t125 -297.5q0 -84 -26.5 -155.5t-83 -122.5t-143.5 -80t-206 -29q-49 0 -97 7.5t-91 17.5t-75.5 21.5t-47.5 19.5z" />
<glyph unicode="6" d="M111 508q0 184 50 326.5t143 238.5t226.5 147.5t300.5 53.5l15 -144q-109 -2 -198 -23.5t-158.5 -69.5t-116.5 -123.5t-72 -186.5q49 23 107.5 37t123.5 14q106 0 181 -32.5t120.5 -87t66 -126t20.5 -147.5q0 -70 -23 -142.5t-70 -133t-120.5 -98.5t-176.5 -38 q-211 0 -315 141.5t-104 393.5zM283 508q0 -80 11 -150.5t38.5 -125t75 -86t120.5 -31.5q61 0 102.5 25.5t68 64.5t38 87t11.5 91q0 125 -56.5 190.5t-177.5 65.5q-66 0 -120 -12.5t-109 -36.5q-2 -20 -2 -40v-42z" />
<glyph unicode="7" d="M129 1120v148h803v-142q-61 -72 -133 -192.5t-136.5 -271t-111.5 -321.5t-59 -341h-175q10 145 52.5 308t101.5 315.5t131 282.5t141 214h-614z" />
<glyph unicode="8" d="M104 319q0 109 59.5 193t141.5 135q-174 98 -174 301q0 70 26.5 133.5t76 110.5t120 75.5t158.5 28.5q102 0 175 -30.5t118 -78.5t65.5 -106.5t20.5 -113.5q0 -109 -55.5 -188t-126.5 -126q211 -100 211 -323q0 -160 -101.5 -258.5t-308.5 -98.5q-119 0 -196.5 32 t-124 82t-66 111.5t-19.5 120.5zM268 317q0 -33 12.5 -68.5t41 -66t75.5 -50t115 -19.5q63 0 109.5 17t76 47t44 67t14.5 73q0 117 -84 179.5t-232 95.5q-82 -45 -127 -113t-45 -162zM297 963q0 -84 60.5 -157t199.5 -106q78 45 124 107t46 160q0 27 -12.5 60.5t-38 61 t-66.5 47t-98 19.5q-59 0 -99 -18.5t-67 -46t-38 -61.5t-11 -66z" />
<glyph unicode="9" d="M104 885q0 70 23 142.5t70 132t120.5 98t176.5 38.5q209 0 315 -143t106 -393q0 -379 -184 -570.5t-555 -193.5l-6 143q229 0 369.5 91.5t185.5 314.5q-49 -23 -108.5 -36t-124.5 -13q-109 0 -182.5 31.5t-119 86t-66 124t-20.5 147.5zM276 889q0 -125 56.5 -189.5 t177.5 -64.5q66 0 122 12t109 35q2 20 2 38.5v39.5q0 80 -11 151.5t-38.5 125t-76 85t-121.5 31.5q-61 0 -102.5 -25.5t-68 -63.5t-38 -85t-11.5 -90z" />
<glyph unicode=":" d="M362 131q0 63 41 110.5t111 47.5q68 0 109 -47.5t41 -110.5q0 -61 -41 -108.5t-109 -47.5q-70 0 -111 47.5t-41 108.5zM362 793q0 63 41 110.5t111 47.5q68 0 109 -47.5t41 -110.5q0 -61 -41 -108.5t-109 -47.5q-70 0 -111 47.5t-41 108.5z" />
<glyph unicode=";" d="M256 -162q37 8 73 16.5t66.5 24t55 39t39.5 64.5q-66 6 -95.5 50t-29.5 87q0 82 46 124t105 42q76 0 115 -54.5t39 -132.5q0 -59 -23.5 -123.5t-72 -121t-120 -96.5t-169.5 -52zM362 793q0 63 41 110.5t111 47.5q68 0 109 -47.5t41 -110.5q0 -61 -41 -108.5t-109 -47.5 q-70 0 -111 47.5t-41 108.5z" />
<glyph unicode="&#x3c;" d="M100 449v145l791 336l47 -142l-649 -266l649 -268l-47 -141z" />
<glyph unicode="=" d="M94 270v146h838v-146h-838zM94 659v146h838v-146h-838z" />
<glyph unicode="&#x3e;" d="M100 254l650 268l-650 266l47 142l791 -336v-145l-791 -336z" />
<glyph unicode="?" d="M188 1223q61 35 139.5 54t166.5 19q104 0 170.5 -28.5t105.5 -72.5t54.5 -97.5t15.5 -102.5q0 -61 -23.5 -109t-58.5 -91t-76 -82t-76 -81t-58.5 -91t-23.5 -109h-145l-2 39q0 88 45 152.5t99 120t99.5 110.5t45.5 127q0 78 -49.5 125t-145.5 47q-59 0 -117.5 -14.5 t-117.5 -46.5zM330 115q0 63 40 101t97 38q55 0 96 -38t41 -101t-41 -101.5t-96 -38.5q-57 0 -97 38t-40 102z" />
<glyph unicode="@" d="M82 498q0 211 38 362.5t104.5 247.5t154.5 142t190 46q180 0 284.5 -121.5t104.5 -338.5v-707q-61 -25 -124.5 -34t-116.5 -9q-72 0 -133.5 23.5t-107.5 72.5t-71.5 126t-25.5 184q0 190 98 289.5t256 99.5q16 0 31.5 -1t32.5 -3q0 129 -53.5 204.5t-170.5 75.5 q-72 0 -131 -35t-102 -111.5t-67.5 -197.5t-24.5 -293q0 -129 24.5 -248.5t76.5 -210t133 -144.5t194 -54q82 0 170 26l16 -137q-109 -29 -200 -28q-150 0 -259.5 66.5t-180 175t-105.5 247.5t-35 285zM543 492q0 -41 5 -88.5t23.5 -87.5t52 -67.5t93.5 -27.5q16 0 36.5 2 t43.5 8v502q-18 6 -36 8t-34 2q-88 0 -136 -68t-48 -183z" />
<glyph unicode="A" d="M18 0q35 135 78 293t93.5 323.5t105.5 332.5t117 319h209q59 -152 113 -319t102.5 -332.5t91.5 -323.5t78 -293h-179l-75 332h-488l-74 -332h-172zM303 471h410q-47 184 -101.5 355t-101.5 294q-47 -129 -102.5 -299t-104.5 -350z" />
<glyph unicode="B" d="M111 20v1229q31 8 70.5 14.5t81.5 9.5t82 5t73 2q94 0 176 -16.5t142.5 -55.5t94 -102.5t33.5 -157.5q0 -45 -14 -87t-40 -79t-59.5 -64.5t-72.5 -41.5q104 -29 175 -105.5t71 -199.5q0 -188 -121 -284.5t-385 -96.5q-31 0 -72 2t-82 5t-82 9t-71 14zM279 139q4 -2 46 -5 t105 -3t121.5 10.5t103.5 38t73 72.5t28 117q0 63 -25.5 106t-67.5 68.5t-97.5 37t-114.5 11.5h-172v-453zM279 731h133q51 0 102 10.5t92 33t65.5 61t24.5 98.5q0 55 -22.5 94t-59 63.5t-85 35t-101.5 10.5t-93 -1t-56 -6v-399z" />
<glyph unicode="C" d="M94 635q0 162 42 284.5t114 206.5t168 127t205 43q76 0 154.5 -20.5t154.5 -67.5l-49 -139q-135 78 -254 78q-84 0 -150.5 -36t-114 -103.5t-73 -161.5t-25.5 -211q0 -131 28 -227.5t77 -160t117.5 -94t148.5 -30.5q59 0 124.5 15.5t135.5 53.5l45 -139 q-72 -41 -152.5 -60.5t-173.5 -19.5q-113 0 -208 40t-164.5 121t-109.5 206t-40 295z" />
<glyph unicode="D" d="M111 20v1229q129 31 256 31q123 0 228 -35t182 -112.5t121 -200.5t44 -297q0 -176 -44 -299t-121 -200t-182.5 -111.5t-227.5 -34.5q-127 0 -256 30zM279 141q51 -6 104 -6q92 0 163.5 27.5t121 88t76 156t26.5 228.5q0 258 -99.5 379t-293.5 121q-27 0 -52.5 -1 t-45.5 -6v-987z" />
<glyph unicode="E" d="M186 0v1268h711v-144h-543v-389h475v-143h-475v-449h588v-143h-756z" />
<glyph unicode="F" d="M186 0v1268h719v-144h-551v-395h486v-141h-486v-588h-168z" />
<glyph unicode="G" d="M94 635q0 160 41 282.5t111.5 206.5t165 128t202.5 44q70 0 123.5 -10t91 -24.5t62 -29.5t37.5 -24l-56 -141q-47 37 -111.5 60.5t-135.5 23.5q-78 0 -144.5 -37t-114 -104.5t-74 -162.5t-26.5 -212q0 -115 23.5 -209t68.5 -161.5t112 -105.5t153 -38q59 0 92 8t49 16 v480h168v-594q-39 -14 -125 -36t-203 -22q-115 0 -209 44t-160.5 128t-103.5 208t-37 282z" />
<glyph unicode="H" d="M92 0v1268h168v-535h504v535h168v-1268h-168v590h-504v-590h-168z" />
<glyph unicode="I" d="M182 0v143h246v981h-246v144h660v-144h-246v-981h246v-143h-660z" />
<glyph unicode="J" d="M111 76l67 137q39 -29 103.5 -61.5t150.5 -32.5q131 0 195.5 69.5t64.5 235.5v700h-432v144h600v-860q0 -90 -19.5 -170t-67.5 -138.5t-129 -92.5t-204 -34t-206.5 35t-122.5 68z" />
<glyph unicode="K" d="M131 0v1268h168v-566q133 137 255 287t214 279h195q-100 -150 -220 -297.5t-260 -294.5q66 -55 139.5 -129t144.5 -161t133.5 -185.5t105.5 -200.5h-191q-51 94 -110.5 184t-126 168t-137 142.5t-142.5 111.5v-606h-168z" />
<glyph unicode="L" d="M186 0v1268h168v-1125h588v-143h-756z" />
<glyph unicode="M" d="M66 0q6 156 14 319.5t19.5 325.5t26.5 319.5t34 303.5h155l199 -631l197 631h157q41 -299 58.5 -612.5t31.5 -655.5h-163q-2 111 -4.5 240t-5.5 266t-6 278.5t-7 274.5l-184 -578h-148l-188 578q-2 -133 -5 -273.5t-6 -278.5t-6.5 -267t-5.5 -240h-163z" />
<glyph unicode="N" d="M113 0v1268h172q84 -154 146.5 -268.5t114.5 -222t101 -221.5t111 -263v975h153v-1268h-172q-70 170 -131 308t-117.5 259t-111.5 228.5t-113 216.5v-1012h-153z" />
<glyph unicode="O" d="M59 635q0 170 33 295t92.5 206t142.5 120.5t185 39.5q100 0 184 -39.5t143.5 -120.5t93.5 -206t34 -295t-34 -295t-93.5 -207t-143.5 -121t-184 -39q-102 0 -185 39t-142.5 121t-92.5 207t-33 295zM231 635q0 -250 68 -383t209 -133q143 0 215 133t72 383t-72 383 t-215 133q-141 0 -209 -133t-68 -383z" />
<glyph unicode="P" d="M150 0v1249q37 8 80.5 14.5t87.5 10.5t86 5t77 1q113 0 198 -28.5t141.5 -81t84 -124t27.5 -159.5q0 -199 -117 -306.5t-350 -107.5h-148v-473h-167zM317 616h140q154 0 228.5 61.5t74.5 203.5q0 254 -266 254q-53 0 -102.5 -1t-74.5 -6v-512z" />
<glyph unicode="Q" d="M59 633q0 170 33 295t92.5 205.5t142.5 120.5t185 40q100 0 184 -40t143.5 -120.5t93.5 -205.5t34 -295q0 -152 -27 -267.5t-76 -197.5t-118.5 -129t-153.5 -62q6 -41 34.5 -70.5t72.5 -51t100.5 -36t118.5 -22.5l-39 -135q-84 14 -161 36.5t-138.5 59.5t-104.5 90.5 t-57 131.5q-166 35 -262.5 193.5t-96.5 459.5zM231 633q0 -250 68 -383t209 -133q143 0 215 133t72 383t-72 383t-215 133q-141 0 -209 -133t-68 -383z" />
<glyph unicode="R" d="M113 0v1249q31 8 70.5 14.5t81.5 9.5t83 5t74 2q229 0 345 -100t116 -299q0 -117 -61.5 -206t-166.5 -138q31 -49 69 -112t77 -133.5t76.5 -145t70.5 -146.5h-180q-61 147 -134 282.5t-140 219.5q-12 -2 -36 -2h-32h-143v-500h-170zM283 639h108q74 0 132.5 10t100.5 38 t64.5 76t22.5 126q0 74 -22.5 121t-59.5 74.5t-87.5 39t-105.5 11.5q-47 0 -91 -1t-62 -6v-489z" />
<glyph unicode="S" d="M113 61l51 140q41 -23 120.5 -52.5t194.5 -29.5q129 0 196.5 49t67.5 147q0 59 -24.5 101.5t-65.5 74t-92 55t-104 44.5q-61 25 -117.5 55.5t-100.5 71.5t-70 96t-26 131q0 166 104.5 259t291.5 93q51 0 101 -7t93 -17t77 -24.5t54 -28.5l-53 -142q-41 25 -112.5 49.5 t-159.5 24.5q-92 0 -160 -46t-68 -138q0 -53 19.5 -90t53.5 -65t79 -50.5t98 -44.5q78 -33 142.5 -66t110.5 -78t71.5 -106t25.5 -150q0 -166 -111.5 -255t-320.5 -89q-68 0 -127 9.5t-105 23.5t-81 28.5t-53 26.5z" />
<glyph unicode="T" d="M80 1124v144h864v-144h-348v-1124h-168v1124h-348z" />
<glyph unicode="U" d="M98 436v832h168v-813q0 -96 17.5 -161t49.5 -103.5t77 -55t102 -16.5t102 16.5t77 55t49.5 103t17.5 161.5v813h168v-832q0 -106 -22.5 -192t-72 -145.5t-128 -92.5t-191.5 -33t-191.5 33t-128 92.5t-72 145.5t-22.5 192z" />
<glyph unicode="V" d="M27 1268h182q25 -129 62.5 -281.5t79.5 -305.5t85 -292t80 -244q33 104 77 245.5t87 294.5t81 304.5t62 278.5h176q-16 -82 -53 -220.5t-88 -309.5t-113.5 -362.5t-130.5 -375.5h-208q-63 184 -124 374.5t-112 361.5t-88 310.5t-55 221.5z" />
<glyph unicode="W" d="M66 1268h163l23 -1059l184 577h148l188 -577l23 1059h163q-6 -172 -15 -344t-21.5 -335t-26.5 -312.5t-31 -276.5h-155l-199 631l-197 -631h-157q-18 125 -31.5 275.5t-25 314.5t-19.5 336t-14 342z" />
<glyph unicode="X" d="M51 0q68 152 158 329t192 341l-329 598h186l248 -486l266 486h182l-336 -592q98 -160 190.5 -332t164.5 -344h-187q-23 55 -53.5 125t-65 143.5t-74.5 147t-83 137.5q-72 -115 -143.5 -263.5t-133.5 -289.5h-182z" />
<glyph unicode="Y" d="M27 1268h188q59 -172 136 -329t165 -323q94 174 167 331t132 321h184q-78 -201 -178 -391.5t-223 -401.5v-475h-168v471q-125 205 -226.5 399.5t-176.5 397.5z" />
<glyph unicode="Z" d="M111 0v111q63 129 140 265t156.5 267t159.5 254t154 227h-580v144h774v-131q-66 -90 -146.5 -214t-164.5 -259.5t-163 -271.5t-138 -249h629v-143h-821z" />
<glyph unicode="[" d="M293 -338v1770h489v-134h-329v-1503h329v-133h-489z" />
<glyph unicode="\" d="M143 1432h170l568 -1770h-172z" />
<glyph unicode="]" d="M242 -205h329v1503h-329v134h489v-1770h-489v133z" />
<glyph unicode="^" d="M82 645l354 623h152l354 -623l-135 -70l-295 517l-295 -517z" />
<glyph unicode="_" d="M16 -195h992v-143h-992v143z" />
<glyph unicode="`" d="M334 1311l108 108l234 -282l-86 -76z" />
<glyph unicode="a" d="M119 283q0 82 35.5 138t92 91t129.5 50.5t146 15.5q100 0 197 -23v47q0 43 -9.5 83t-35 73t-69.5 52t-113 19q-88 0 -154 -12t-100 -24l-21 139q35 16 116 28.5t173 12.5q106 0 179 -26.5t118 -74t63.5 -115t18.5 -147.5v-594q-59 -10 -156.5 -24.5t-200.5 -14.5 q-78 0 -151.5 13.5t-131 47.5t-92 93t-34.5 152zM291 285q0 -92 62.5 -128t168.5 -36q63 0 113.5 4t83.5 10v283q-33 10 -79 16t-97 6q-47 0 -92 -7t-80 -25.5t-57.5 -48t-22.5 -74.5z" />
<glyph unicode="b" d="M145 27v1364l170 28v-504q31 18 89.5 38t130.5 20q96 0 171.5 -37t128 -102.5t80 -156.5t27.5 -202q0 -115 -32.5 -207t-92 -156.5t-143.5 -99.5t-187 -35q-113 0 -200.5 16.5t-141.5 33.5zM315 147q39 -10 78 -15t74 -5q141 0 221 87t80 261q0 74 -14.5 138.5t-45 110.5 t-78.5 72.5t-116 26.5q-59 0 -114.5 -23.5t-84.5 -49.5v-603z" />
<glyph unicode="c" d="M100 473q0 129 41 223.5t113 155.5t167 91t204 30q70 0 138 -9.5t146 -33.5l-39 -146q-68 25 -124 32t-113 7q-74 0 -139.5 -19.5t-113.5 -61.5t-77 -108.5t-29 -160.5q0 -90 27 -154.5t75 -106.5t115.5 -62.5t149.5 -20.5q66 0 126 7t132 32l25 -141 q-72 -27 -145.5 -38.5t-160.5 -11.5q-115 0 -210 32t-163.5 93.5t-106.5 154.5t-38 216z" />
<glyph unicode="d" d="M82 475q0 111 27.5 202t81 156.5t128 102.5t170.5 37q76 0 133.5 -18.5t86.5 -39.5v476l170 28v-1392q-55 -16 -141.5 -33t-200.5 -17q-102 0 -186.5 35t-144 99.5t-92 156.5t-32.5 207zM256 475q0 -166 78 -256t203 -90q63 0 107 6t65 12v603q-29 27 -84.5 50t-114.5 23 q-68 0 -116 -26.5t-78.5 -72.5t-45 -110.5t-14.5 -138.5z" />
<glyph unicode="e" d="M82 473q0 127 39 221t102.5 155.5t143 92.5t163.5 31q193 0 297.5 -120t104.5 -364v-59h-680q10 -147 97 -224t245 -77q90 0 153.5 14.5t96.5 30.5l22 -143q-31 -16 -110.5 -35t-180.5 -19q-123 0 -216 38t-154.5 103.5t-92 157t-30.5 197.5zM256 567h504 q0 121 -63.5 191.5t-168.5 70.5q-59 0 -107 -22.5t-83 -59t-55.5 -84t-26.5 -96.5z" />
<glyph unicode="f" d="M129 809v141h201v86q0 111 30.5 183.5t81 117.5t117 63.5t139.5 18.5q74 0 149 -16.5t140 -38.5l-31 -145q-45 23 -112.5 39t-136.5 16q-43 0 -81 -11.5t-67 -39t-45 -73.5t-16 -116v-84h383v-141h-383v-809h-168v809h-201z" />
<glyph unicode="g" d="M82 496q0 104 29.5 191t86 150.5t138.5 99.5t186 36q123 0 210 -17.5t147 -33.5v-848q0 -221 -112 -319.5t-337 -98.5q-92 0 -167 14.5t-132 34.5l31 150q53 -23 121.5 -37.5t150.5 -14.5q147 0 211 59.5t64 192.5v33q-29 -16 -88.5 -34.5t-137.5 -18.5 q-84 0 -156.5 27.5t-127 84t-86 143.5t-31.5 206zM256 494q0 -82 19.5 -140.5t53 -96.5t77 -55.5t92.5 -17.5q63 0 119.5 18.5t91.5 43.5v555q-25 8 -68 15t-117 7q-131 0 -199.5 -90t-68.5 -239z" />
<glyph unicode="h" d="M145 0v1391l170 28v-483q41 16 92.5 25.5t100.5 9.5q109 0 181.5 -32t115.5 -89t61.5 -137t18.5 -176v-537h-168v500q0 176 -49.5 248.5t-175.5 72.5q-53 0 -103.5 -11t-73.5 -22v-788h-170z" />
<glyph unicode="i" d="M111 809v141h442v-583q0 -141 39 -189.5t117 -48.5q59 0 109 14.5t79 30.5l25 -143q-12 -6 -35 -15.5t-52.5 -17.5t-65.5 -14.5t-75 -6.5q-90 0 -149.5 25t-95 74t-50 121.5t-14.5 169.5v442h-274zM297 1235q0 63 39 100t92 37q55 0 93 -37t38 -100t-38 -100t-93 -37 q-53 0 -92 36.5t-39 100.5z" />
<glyph unicode="j" d="M145 -281l52 144q51 -25 113.5 -42.5t119.5 -17.5q82 0 135 42t53 163v801h-385v141h553v-940q0 -98 -27.5 -166.5t-73.5 -111.5t-106.5 -61.5t-127.5 -18.5q-78 0 -157 16.5t-149 50.5zM500 1235q0 63 39 100t92 37q55 0 93 -37t38 -100t-38 -100t-93 -37 q-53 0 -92 36.5t-39 100.5z" />
<glyph unicode="k" d="M145 0v1391l170 28v-866q113 98 225.5 195.5t202.5 201.5h199q-88 -104 -212 -215t-243 -213q55 -41 125 -103.5t138.5 -134t130 -146.5t98.5 -138h-201q-39 63 -96 130t-121.5 128t-129 112.5t-116.5 86.5v-457h-170z" />
<glyph unicode="l" d="M111 1266v143h442v-1042q0 -72 9 -117t28.5 -72.5t48.5 -38t68 -10.5q59 0 110 14.5t80 30.5l25 -143q-12 -6 -35 -15.5t-53.5 -17.5t-66.5 -14.5t-75 -6.5q-90 0 -149.5 25t-94 74t-49 121.5t-14.5 169.5v899h-274z" />
<glyph unicode="m" d="M84 0v924q123 47 231 47q59 0 111.5 -17.5t89.5 -54.5q88 72 189 72q49 0 93 -18.5t77.5 -55.5t54 -92t20.5 -129v-676h-153v680q0 74 -33 112.5t-82 38.5q-25 0 -51.5 -12t-48.5 -39q12 -47 12 -104v-309h-154v311q0 72 -22.5 112.5t-87.5 40.5q-41 0 -92 -18v-813h-154 z" />
<glyph unicode="n" d="M145 0v924q92 23 183.5 35t171.5 12q190 0 287.5 -98.5t97.5 -315.5v-557h-168v526q0 92 -16.5 149.5t-46 89.5t-71.5 44t-91 12q-41 0 -87.5 -5t-89.5 -13v-803h-170z" />
<glyph unicode="o" d="M82 475q0 113 31.5 205t89 156.5t136.5 100.5t171 36q94 0 174 -36t137.5 -100.5t89 -156.5t31.5 -205t-31.5 -204t-89 -156.5t-137.5 -101.5t-174 -36q-92 0 -171 36t-136.5 101.5t-89 156.5t-31.5 204zM256 475q0 -160 68.5 -253t185.5 -93q119 0 188.5 93t69.5 253 q0 162 -69.5 255t-188.5 93q-117 0 -185.5 -93t-68.5 -255z" />
<glyph unicode="p" d="M145 -338v1260q55 16 142.5 32.5t199.5 16.5q102 0 186.5 -35t144 -99.5t92 -156.5t32.5 -207q0 -109 -27.5 -200t-80 -156.5t-128 -102.5t-171.5 -37q-76 0 -133.5 18.5t-86.5 41.5v-375h-170zM315 201q29 -27 84.5 -49.5t114.5 -22.5q68 0 116 26.5t78.5 72.5t45 108.5 t14.5 136.5q0 166 -78 257t-203 91q-70 0 -109.5 -6t-62.5 -14v-600z" />
<glyph unicode="q" d="M82 473q0 115 32.5 207t92 156.5t144.5 99.5t188 35q111 0 195.5 -17.5t144.5 -33.5v-1258h-170v375q-31 -20 -88.5 -40t-128.5 -20q-96 0 -172 37t-128.5 102.5t-81 156.5t-28.5 200zM256 473q0 -74 15.5 -136.5t46 -108.5t78.5 -72.5t116 -26.5q59 0 114.5 22.5 t84.5 49.5v600q-23 8 -63 14t-109 6q-125 0 -204 -91t-79 -257z" />
<glyph unicode="r" d="M219 0v899q209 72 422 72q66 0 125 -5t131 -22l-31 -149q-66 18 -116 23t-109 5q-125 0 -254 -35v-788h-168z" />
<glyph unicode="s" d="M135 43l33 154q72 -33 150.5 -54.5t168.5 -21.5q232 0 232 117q0 51 -42 83.5t-104.5 57t-136.5 48.5t-136 58.5t-104 86t-42 133.5q0 115 93 191.5t292 76.5q78 0 160.5 -11.5t142.5 -29.5l-31 -152q-16 8 -45 17.5t-65.5 16.5t-78.5 11t-81 4q-221 0 -222 -120 q0 -43 42 -73t105.5 -54.5t137.5 -50t137.5 -62.5t105.5 -89t42 -132q0 -129 -100.5 -200t-317.5 -71q-98 0 -180 16.5t-156 49.5z" />
<glyph unicode="t" d="M129 809v141h201v267l168 28v-295h401v-141h-401v-442q0 -72 10 -117t33.5 -72.5t60.5 -38t90 -10.5q74 0 119 12.5t86 32.5l25 -143q-29 -12 -91.5 -33t-154.5 -21q-106 0 -174 25t-106 74t-52 121.5t-14 169.5v442h-201z" />
<glyph unicode="u" d="M139 416v534h168v-497q0 -176 52.5 -250t175.5 -74q27 0 54 2t52 5t43 6t25 5v803h170v-923q-55 -14 -146.5 -30.5t-214.5 -16.5q-109 0 -180.5 31.5t-116.5 90t-63.5 138t-18.5 176.5z" />
<glyph unicode="v" d="M61 950h185q25 -90 56.5 -190.5t66 -200.5t70.5 -193.5t71 -166.5q35 74 73 167t74.5 193t70.5 200.5t58 190.5h177q-37 -133 -84.5 -261t-96.5 -250t-100 -232.5t-98 -206.5h-154q-96 193 -194.5 438.5t-174.5 511.5z" />
<glyph unicode="w" d="M39 950h160q6 -80 13 -156.5t17.5 -160.5t23.5 -182.5t30 -221.5q33 82 55 143.5t40.5 117t36 112.5t38.5 129h127q20 -72 36.5 -129t35 -112.5l39 -117t50.5 -141.5q18 113 32.5 209.5t25 181.5t18.5 164.5t14 163.5h154q-10 -102 -24.5 -219t-35 -239.5t-45 -248.5 t-51.5 -243h-127q-31 70 -53 127t-43.5 114.5t-43 120t-50.5 142.5q-29 -80 -51.5 -142.5t-44 -120t-45 -114.5t-54.5 -127h-127q-57 252 -95 498.5t-56 451.5z" />
<glyph unicode="x" d="M59 0q68 123 165.5 253t191.5 247l-342 450h190l256 -332l236 332h180l-313 -440q92 -121 185 -252t159 -258h-189q-20 41 -50 90t-64.5 101.5t-72.5 103.5t-75 96q-37 -47 -78 -98t-78.5 -103.5t-70.5 -101.5t-56 -88h-174z" />
<glyph unicode="y" d="M74 -315l30 137q18 -10 52 -16.5t63 -6.5q100 0 156.5 44t103.5 145q-115 217 -215 465.5t-166 496.5h185q20 -82 47.5 -177t62.5 -195.5t75 -202t85 -193.5q33 94 61.5 186.5t53 185.5t49 190.5t51.5 205.5h176q-66 -266 -146.5 -516t-172.5 -463q-35 -82 -75 -141 t-87 -98t-106.5 -57.5t-135.5 -18.5q-39 0 -85 10t-62 19z" />
<glyph unicode="z" d="M150 0v113q43 82 107.5 179t134 192.5t136 181.5t115.5 143h-467v141h684v-127q-37 -43 -100.5 -119.5t-136 -170t-144 -195.5t-127.5 -195h522v-143h-724z" />
<glyph unicode="{" d="M162 481v131h82q35 0 61.5 15.5t44 41t26.5 57.5t9 65v329q0 76 15.5 133.5t52 97.5t99 60.5t157.5 20.5h165v-134h-174q-86 0 -121.5 -38.5t-35.5 -141.5v-282q0 -137 -41 -202t-94 -87q53 -25 94 -92.5t41 -196.5v-283q0 -102 36.5 -141t122.5 -39h172v-133h-165 q-94 0 -157 20.5t-99.5 60.5t-52 97.5t-15.5 132.5v330q0 31 -9 62.5t-26.5 57.5t-43 42t-60.5 16h-84z" />
<glyph unicode="|" d="M434 -338v1770h158v-1770h-158z" />
<glyph unicode="}" d="M150 -205h174q86 0 121.5 39t35.5 141v283q0 137 41 201.5t94 87.5q-53 25 -94 92.5t-41 196.5v282q0 102 -36.5 141t-122.5 39h-172v134h165q94 0 157 -20.5t100.5 -60.5t53 -97.5t15.5 -133.5v-329q0 -31 8 -63t25.5 -57.5t43 -42t60.5 -16.5h84v-131h-82 q-35 0 -60.5 -15t-43 -41t-26.5 -57.5t-9 -64.5v-330q0 -76 -15.5 -133t-53 -97t-100 -60.5t-157.5 -20.5h-165v133z" />
<glyph unicode="~" d="M76 434q6 35 22.5 80t45 84t72.5 65.5t110 26.5q55 0 101 -21.5t89 -47.5q49 -29 95 -57.5t98 -28.5q29 0 49 13t33.5 33.5t23.5 46t16 48.5l117 -33q-6 -35 -21.5 -80t-45 -84t-74.5 -65.5t-109 -26.5q-55 0 -101 21.5t-89 48.5q-49 29 -94 57.5t-99 28.5 q-29 0 -49 -13.5t-33.5 -34t-23.5 -46t-16 -48.5z" />
<glyph unicode="&#xa0;" />
<glyph unicode="&#xa1;" d="M373 813q0 63 41 101t96 38q57 0 97 -37.5t40 -101.5q0 -63 -40 -100t-97 -37q-55 0 -96 37t-41 100zM418 6q0 76 3 139.5t7 121t11 113.5t14 118h116q6 -61 12.5 -117.5t11.5 -114t7 -121t2 -139.5v-344h-184v344z" />
<glyph unicode="&#xa2;" d="M100 532q0 109 31 192t86 142.5t132 94t167 47.5v260h152v-254q55 -4 110.5 -13.5t118.5 -29.5l-37 -142q-68 25 -123 32t-112 7q-74 0 -138.5 -19.5t-111.5 -59t-74 -104t-27 -153.5q0 -170 101.5 -250.5t265.5 -80.5q66 0 125 8t131 33l25 -140q-61 -23 -123 -33 t-131 -14v-254h-152v258q-188 27 -302 145.5t-114 327.5z" />
<glyph unicode="&#xa3;" d="M92 545v137h170v152q0 135 28.5 224t80 140t124 71.5t162.5 20.5q80 0 134.5 -13t105.5 -36l-41 -145q-92 45 -207 45q-49 0 -89 -14.5t-69.5 -49.5t-45 -93t-15.5 -146v-156h348v-137h-348v-15q0 -92 -7 -192t-22 -193h531v-145h-721q20 131 35.5 259t15.5 259v27h-170z " />
<glyph unicode="&#xa4;" d="M78 305l133 133q-51 82 -51 197q0 113 51 194l-133 136l104 104l135 -137q88 53 195 53q104 0 193 -53l137 137l106 -104l-137 -136q53 -82 53 -194q0 -59 -13 -106.5t-40 -88.5l137 -135l-106 -106l-137 135q-88 -51 -193 -51q-111 0 -195 51l-135 -135zM297 635 q0 -104 63.5 -165.5t151.5 -61.5t151.5 61.5t63.5 165.5t-63.5 165.5t-151.5 61.5t-151.5 -61.5t-63.5 -165.5z" />
<glyph unicode="&#xa5;" d="M27 1268h186q66 -143 143.5 -285.5t161.5 -273.5q80 131 155 273t140 286h186q-82 -154 -170 -310.5t-188 -316.5h252v-131h-295v-186h295v-129h-295v-195h-168v195h-297v129h297v186h-297v131h250q-100 160 -189.5 318.5t-166.5 308.5z" />
<glyph unicode="&#xa6;" d="M434 -338v700h158v-700h-158zM434 731v701h158v-701h-158z" />
<glyph unicode="&#xa7;" d="M139 565q0 47 15.5 88t39 75t52 59.5t55.5 41.5q-45 37 -71.5 84.5t-26.5 108.5q0 127 89 200.5t249 73.5q94 0 174 -17t129 -34l-39 -141q-45 16 -107.5 34.5t-158.5 18.5q-72 0 -123 -29.5t-51 -91.5q0 -63 45 -98t147 -68q68 -23 126 -48t103 -62t71 -87t26 -124 q0 -45 -14.5 -85t-37 -74t-50 -60.5t-54.5 -42.5q53 -39 86 -90.5t33 -118.5q0 -137 -97.5 -207t-277.5 -70q-123 0 -202 19.5t-126 42.5l41 135q55 -23 121 -40t168 -17q207 0 207 127q0 66 -49 101.5t-166 74.5q-68 23 -126 48t-103.5 61t-71 87.5t-25.5 124.5zM295 582 q0 -47 21.5 -80t58.5 -57.5t88 -43t110 -39.5l35 -12q53 35 86 80t33 102q0 47 -21.5 79t-57.5 54.5t-84 41t-101 38.5l-49 19q-53 -35 -86 -81t-33 -101z" />
<glyph unicode="&#xa8;" d="M231 1235q0 47 33 76.5t74 29.5q43 0 74.5 -29.5t31.5 -76.5t-31.5 -78t-74.5 -31q-41 0 -74 31t-33 78zM580 1235q0 47 31.5 76.5t74.5 29.5t75 -29.5t32 -76.5t-32 -78t-75 -31t-74.5 31t-31.5 78z" />
<glyph unicode="&#xa9;" d="M70 473q0 125 38.5 219t101 156.5t142.5 93.5t162 31t162 -31t141.5 -93.5t99 -155.5t37.5 -216q0 -125 -38.5 -218t-101 -155.5t-142.5 -94.5t-162 -32q-84 0 -163 32t-140.5 93.5t-99 154.5t-37.5 216zM188 477q0 -98 28 -171t74 -121t103.5 -72.5t118.5 -24.5 t119.5 24.5t103.5 72.5t73 120t28 168q0 98 -28 171t-74 121t-103.5 72.5t-118.5 24.5t-118.5 -24.5t-103.5 -72.5t-74 -121t-28 -167zM291 469q0 49 14 96t43 84t73 59.5t105 22.5q33 0 69 -5t71 -21l-41 -111q-23 10 -45.5 13t-40.5 3q-66 0 -93.5 -41t-27.5 -92 q0 -66 33.5 -103.5t95.5 -37.5q18 0 41.5 4t46.5 14l35 -108q-35 -16 -73 -24.5t-73 -8.5q-59 0 -103 21.5t-73 57.5t-43 82t-14 95z" />
<glyph unicode="&#xaa;" d="M242 815q0 57 23.5 97t64.5 64.5t93 36t112 11.5q27 0 56.5 -2t67.5 -6v4q0 27 -5 54.5t-21.5 49t-46 34.5t-76.5 13q-43 0 -92 -5t-86 -17l-19 115q35 10 90.5 18t114.5 8q150 0 209 -69.5t59 -184.5v-409q-45 -10 -118.5 -17.5t-149.5 -7.5q-121 0 -198.5 49t-77.5 164 zM369 815q0 -53 42.5 -76.5t118.5 -23.5q41 0 80 2t49 6v182q-20 4 -50.5 6t-59.5 2q-31 0 -62.5 -4t-58.5 -14t-43 -29.5t-16 -50.5z" />
<glyph unicode="&#xab;" d="M129 520l244 361l106 -56l-172 -305l164 -295l-102 -63zM496 520l245 361l105 -56l-170 -305l164 -295l-103 -63z" />
<glyph unicode="&#xac;" d="M84 567v144h838v-623h-146v479h-692z" />
<glyph unicode="&#xad;" d="M287 440v160h450v-160h-450z" />
<glyph unicode="&#xae;" d="M70 473q0 125 38.5 219t101 156.5t142.5 93.5t162 31t162 -31t141.5 -93.5t99 -155.5t37.5 -216q0 -125 -38.5 -218t-101 -155.5t-142.5 -94.5t-162 -32q-84 0 -163 32t-140.5 93.5t-99 154.5t-37.5 216zM188 477q0 -98 28 -171t74 -121t103.5 -72.5t118.5 -24.5 t119.5 24.5t103.5 72.5t73 120t28 168q0 98 -28 171t-74 121t-103.5 72.5t-118.5 24.5t-118.5 -24.5t-103.5 -72.5t-74 -121t-28 -167zM340 225v488q29 8 63.5 13t73.5 5q117 0 173.5 -45t56.5 -131q0 -98 -82 -145q25 -35 51 -83t53 -102h-117q-27 49 -47 87t-41 71h-73 v-158h-111zM451 485h36q55 0 82 14.5t27 61.5q0 41 -33 54.5t-67 13.5q-12 0 -23.5 -1t-21.5 -3v-140z" />
<glyph unicode="&#xaf;" d="M252 1169v131h520v-131h-520z" />
<glyph unicode="&#xb0;" d="M256 1165q0 59 20.5 106.5t56.5 80t82 50t97 17.5t97 -17.5t82 -50t56.5 -80t20.5 -106.5t-20.5 -106t-56.5 -80t-82 -50.5t-97 -17.5t-97 17.5t-82 50.5t-56.5 80t-20.5 106zM379 1165q0 -66 39 -102.5t94 -36.5t94 36.5t39 102.5t-39 103t-94 37t-94 -37t-39 -103z" />
<glyph unicode="&#xb1;" d="M94 0v145h838v-145h-838zM94 623v143h344v369h148v-369h346v-143h-346v-369h-148v369h-344z" />
<glyph unicode="&#xb2;" d="M254 1200q33 33 95.5 64.5t144.5 31.5q127 0 187 -52t60 -150q0 -39 -17 -75t-47 -72t-69 -72.5t-82 -73.5q-31 -27 -61.5 -56.5t-34.5 -52.5h340v-117h-487q-6 61 8 107.5t40.5 85.5t62.5 70.5t73 64.5q61 53 100 98.5t39 88.5q0 92 -112 92q-31 0 -58.5 -8.5 t-50.5 -19.5t-39 -23.5t-27 -20.5z" />
<glyph unicode="&#xb3;" d="M258 604l27 109q41 -16 86 -26.5t92 -10.5q98 0 134 29.5t36 76.5q0 31 -16.5 52.5t-44 36t-64.5 20.5t-76 6h-35v104h45q27 0 54.5 5.5t50 16.5t38 29.5t15.5 47.5q0 45 -34 64.5t-87 19.5q-49 0 -91 -17.5t-73 -31.5l-47 100q29 20 91.5 40.5t123.5 20.5 q133 0 188.5 -53t55.5 -139q0 -88 -100 -146q66 -20 102.5 -66t36.5 -112q0 -92 -69.5 -155.5t-231.5 -63.5q-57 0 -115.5 13.5t-91.5 29.5z" />
<glyph unicode="&#xb4;" d="M348 1137l234 282l110 -108l-258 -250z" />
<glyph unicode="&#xb5;" d="M145 -338v1288h170v-497q0 -88 11.5 -149.5t37 -100.5t67.5 -56.5t104 -17.5q27 0 54 2t52 4t43 5t25 5v805h170v-923q-55 -14 -146.5 -32t-214.5 -18q-84 0 -130 18.5t-81 49.5q6 -47 7 -94t1 -101v-188h-170z" />
<glyph unicode="&#xb6;" d="M57 877q0 100 38 174.5t109.5 126t173 77t228.5 25.5q72 0 154 -6t155 -27v-1585h-143v1471q-94 12 -178 4v-1475h-141v817q-190 20 -293 114.5t-103 283.5z" />
<glyph unicode="&#xb7;" d="M362 532q0 63 41 110.5t111 47.5q68 0 109 -47.5t41 -110.5q0 -61 -41 -108.5t-109 -47.5q-70 0 -111 47.5t-41 108.5z" />
<glyph unicode="&#xb8;" d="M319 -322l21 105q23 -8 47.5 -13.5t54.5 -5.5q66 0 66 41t-76 64l-14 4q6 18 17 43t22.5 49.5t21.5 44t15 27.5h116q-10 -23 -26.5 -52.5t-26.5 -52.5q53 -25 76.5 -55.5t23.5 -89.5q0 -20 -9 -44t-30.5 -43t-57.5 -32.5t-89 -13.5q-47 0 -88 7t-64 17z" />
<glyph unicode="&#xb9;" d="M258 1137q70 23 137.5 60.5t116.5 84.5h90v-590h182v-117h-512v117h201v422q-41 -27 -92 -47t-88 -31z" />
<glyph unicode="&#xba;" d="M182 948q0 80 24.5 143.5t68.5 108.5t104.5 69.5t132.5 24.5t132.5 -24.5t104.5 -69.5t68.5 -108.5t24.5 -143.5t-24.5 -143.5t-68.5 -109.5t-104.5 -70.5t-132.5 -24.5t-132.5 24.5t-104.5 70.5t-68.5 109.5t-24.5 143.5zM317 948q0 -102 50.5 -163.5t144.5 -61.5 t144.5 61.5t50.5 163.5q0 104 -50.5 163.5t-144.5 59.5q-92 0 -143.5 -59t-51.5 -164z" />
<glyph unicode="&#xbb;" d="M174 217l172 305l-166 295l103 64l241 -359l-243 -360zM543 217l172 305l-164 295l102 64l242 -359l-246 -360z" />
<glyph unicode="&#xbc;" d="M37 1149q70 29 119 57.5t98 75.5h82v-512h-121v344q-41 -23 -73.5 -37t-69.5 -26zM51 -8l776 1268h144l-776 -1268h-144zM518 98v84q53 94 102.5 171t112.5 159h170v-311h74v-103h-74v-98h-121v98h-264zM639 201h143v223q-43 -55 -77.5 -112.5t-65.5 -110.5z" />
<glyph unicode="&#xbd;" d="M35 0l776 1268h143l-776 -1268h-143zM49 1149q72 29 120 57.5t97 75.5h84v-512h-121v344q-41 -23 -74.5 -37t-70.5 -26zM582 23.5v23.5q0 66 41 101.5t94 68.5l45 31q49 29 67.5 54.5t18.5 53.5q0 35 -23.5 51.5t-56.5 16.5q-31 0 -63.5 -13.5t-57.5 -39.5l-65 82 q35 39 88 58t106 19q96 0 144.5 -51t48.5 -117q0 -53 -27 -91t-65.5 -66.5t-79.5 -53t-68 -49.5h258v-102h-403q-2 6 -2 23.5z" />
<glyph unicode="&#xbe;" d="M43 780l31 101q23 -10 56.5 -18.5t74.5 -8.5q45 0 78.5 13.5t33.5 47.5q0 43 -38.5 55.5t-116.5 12.5h-25v102h45q53 0 82 11.5t29 48.5q0 31 -25.5 40t-54.5 9t-65.5 -10t-61.5 -21l-39 88q31 18 81 31.5t103 13.5q35 0 68 -7t58.5 -22.5t41 -41t15.5 -62.5 q0 -31 -15.5 -61.5t-48.5 -52.5q88 -41 88 -134q0 -29 -12 -58.5t-39 -53t-70 -37.5t-104 -14q-94 0 -170 28zM61 0l777 1268h143l-776 -1268h-144zM518 98v84q53 94 102.5 171t112.5 159h170v-311h74v-103h-74v-98h-121v98h-264zM639 201h143v223q-43 -55 -77.5 -112.5 t-65.5 -110.5z" />
<glyph unicode="&#xbf;" d="M188 -47q0 61 24 108.5t58.5 87t75.5 76.5t76 78t58.5 87t23.5 108h145l2 -41q0 -59 -21.5 -104.5t-53 -84.5t-69.5 -72.5t-69.5 -68.5t-53.5 -74t-22 -86q0 -78 49.5 -125t143.5 -47q121 0 238 62l47 -131q-61 -33 -139 -53.5t-166 -20.5q-104 0 -171 28.5t-106 72.5 t-54.5 97.5t-15.5 102.5zM424 813q0 63 41 101t96 38q57 0 97 -37.5t40 -101.5q0 -63 -40 -100t-97 -37q-55 0 -96 37t-41 100z" />
<glyph unicode="&#xc0;" d="M18 0q35 135 78 293t93.5 323.5t105.5 332.5t117 319h209q59 -152 113 -319t102.5 -332.5t91.5 -323.5t78 -293h-179l-75 332h-488l-74 -332h-172zM303 471h410q-47 184 -101.5 355t-101.5 294q-47 -129 -102.5 -299t-104.5 -350zM342 1592l108 108l234 -282l-86 -76z " />
<glyph unicode="&#xc1;" d="M18 0q35 135 78 293t93.5 323.5t105.5 332.5t117 319h209q59 -152 113 -319t102.5 -332.5t91.5 -323.5t78 -293h-179l-75 332h-488l-74 -332h-172zM303 471h410q-47 184 -101.5 355t-101.5 294q-47 -129 -102.5 -299t-104.5 -350zM342 1418l234 282l110 -108l-258 -250z " />
<glyph unicode="&#xc2;" d="M18 0q35 135 78 293t93.5 323.5t105.5 332.5t117 319h209q59 -152 113 -319t102.5 -332.5t91.5 -323.5t78 -293h-179l-75 332h-488l-74 -332h-172zM264 1430l248 262l248 -262l-70 -80l-178 160l-178 -160zM303 471h410q-47 184 -101.5 355t-101.5 294 q-47 -129 -102.5 -299t-104.5 -350z" />
<glyph unicode="&#xc3;" d="M18 0q35 135 78 293t93.5 323.5t105.5 332.5t117 319h209q59 -152 113 -319t102.5 -332.5t91.5 -323.5t78 -293h-179l-75 332h-488l-74 -332h-172zM229 1454q6 23 21.5 51.5t38 53t53.5 42t68 17.5q27 0 62.5 -15t57.5 -26q53 -29 86 -28q27 0 52.5 26.5t38.5 55.5 l88 -46q-6 -23 -21.5 -51t-38 -53t-53.5 -42t-70 -17q-27 0 -62.5 14t-57.5 25q-53 29 -86 28q-27 0 -51.5 -26.5t-37.5 -55.5zM303 471h410q-47 184 -101.5 355t-101.5 294q-47 -129 -102.5 -299t-104.5 -350z" />
<glyph unicode="&#xc4;" d="M18 0q35 135 78 293t93.5 323.5t105.5 332.5t117 319h209q59 -152 113 -319t102.5 -332.5t91.5 -323.5t78 -293h-179l-75 332h-488l-74 -332h-172zM231 1520q0 47 33 76.5t74 29.5q43 0 74.5 -29.5t31.5 -76.5t-31.5 -78t-74.5 -31q-41 0 -74 31t-33 78zM303 471h410 q-47 184 -101.5 355t-101.5 294q-47 -129 -102.5 -299t-104.5 -350zM580 1520q0 47 31.5 76.5t74.5 29.5t75 -29.5t32 -76.5t-32 -78t-75 -31t-74.5 31t-31.5 78z" />
<glyph unicode="&#xc5;" d="M18 0q33 129 77 287.5t93.5 321.5t101.5 316.5t105 274.5q-29 25 -49 62.5t-20 85.5q0 86 56 136t132 50t132 -50t56 -136q0 -45 -19 -84t-48 -62q51 -121 103.5 -275.5t100.5 -318.5t90 -322.5t77 -285.5h-179l-75 332h-488l-74 -332h-172zM303 471h410 q-47 184 -101.5 355t-101.5 294q-47 -129 -102.5 -299t-104.5 -350zM418 1348q0 -47 27.5 -74t68.5 -27t68.5 27t27.5 74t-27.5 73.5t-68.5 26.5t-68.5 -26.5t-27.5 -73.5z" />
<glyph unicode="&#xc6;" d="M55 0q92 356 186.5 668.5t207.5 599.5h512v-144h-263v-389h215v-143h-215v-449h289v-143h-448v332h-242l-76 -332h-166zM334 471h205v688q-57 -180 -109.5 -358t-95.5 -330z" />
<glyph unicode="&#xc7;" d="M94 635q0 162 42 284.5t114 206.5t168 127t205 43q76 0 154.5 -20.5t154.5 -67.5l-49 -139q-135 78 -254 78q-84 0 -150.5 -36t-114 -103.5t-73 -161.5t-25.5 -211q0 -131 28 -227.5t77 -160t117.5 -94t148.5 -30.5q59 0 124.5 15.5t135.5 54.5l45 -140 q-119 -68 -270 -78l-23 -43q53 -25 77 -55.5t24 -89.5q0 -20 -9.5 -44t-31 -43t-57.5 -32.5t-89 -13.5q-47 0 -88 7t-63 17l20 105q23 -8 47.5 -13.5t55.5 -5.5q66 0 65 41q0 41 -76 64l-14 4q8 23 20.5 50.5t24.5 53.5q-100 10 -185 54.5t-146.5 126.5t-95.5 200.5 t-34 276.5z" />
<glyph unicode="&#xc8;" d="M186 0v1268h711v-144h-543v-389h475v-143h-475v-449h588v-143h-756zM363 1592l108 108l234 -282l-86 -76z" />
<glyph unicode="&#xc9;" d="M186 0v1268h711v-144h-543v-389h475v-143h-475v-449h588v-143h-756zM401 1418l234 282l110 -108l-258 -250z" />
<glyph unicode="&#xca;" d="M186 0v1268h711v-144h-543v-389h475v-143h-475v-449h588v-143h-756zM301 1430l248 262l248 -262l-70 -80l-178 160l-178 -160z" />
<glyph unicode="&#xcb;" d="M186 0v1268h711v-144h-543v-389h475v-143h-475v-449h588v-143h-756zM268 1520q0 47 33 76.5t74 29.5q43 0 74.5 -29.5t31.5 -76.5t-31.5 -78t-74.5 -31q-41 0 -74 31t-33 78zM617 1520q0 47 31.5 76.5t74.5 29.5t75 -29.5t32 -76.5t-32 -78t-75 -31t-74.5 31t-31.5 78z " />
<glyph unicode="&#xcc;" d="M182 0v143h246v981h-246v144h660v-144h-246v-981h246v-143h-660zM344 1592l108 108l234 -282l-86 -76z" />
<glyph unicode="&#xcd;" d="M182 0v143h246v981h-246v144h660v-144h-246v-981h246v-143h-660zM368 1418l234 282l110 -108l-258 -250z" />
<glyph unicode="&#xce;" d="M182 0v143h246v981h-246v144h660v-144h-246v-981h246v-143h-660zM264 1430l248 262l248 -262l-70 -80l-178 160l-178 -160z" />
<glyph unicode="&#xcf;" d="M182 0v143h246v981h-246v144h660v-144h-246v-981h246v-143h-660zM231 1520q0 47 33 76.5t74 29.5q43 0 74.5 -29.5t31.5 -76.5t-31.5 -78t-74.5 -31q-41 0 -74 31t-33 78zM580 1520q0 47 31.5 76.5t74.5 29.5t75 -29.5t32 -76.5t-32 -78t-75 -31t-74.5 31t-31.5 78z" />
<glyph unicode="&#xd0;" d="M37 596v131h108v522q125 31 250 31q117 0 217.5 -35t173 -112.5t114.5 -200.5t42 -297q0 -176 -42 -299t-114.5 -200t-173 -111.5t-217.5 -34.5q-125 0 -250 30v576h-108zM315 141q23 -4 47.5 -5t47.5 -1q86 0 152.5 27.5t112.5 88t70.5 156t24.5 228.5q0 258 -93 379 t-274 121q-51 0 -88 -7v-401h201v-131h-201v-455z" />
<glyph unicode="&#xd1;" d="M113 0v1268h172q84 -154 146.5 -268.5t114.5 -222t101 -221.5t111 -263v975h153v-1268h-172q-70 170 -131 308t-117.5 259t-111.5 228.5t-113 216.5v-1012h-153zM229 1454q6 23 21.5 51.5t38 53t53.5 42t68 17.5q27 0 62.5 -15t57.5 -26q53 -29 86 -28q27 0 52.5 26.5 t38.5 55.5l88 -46q-6 -23 -21.5 -51t-38 -53t-53.5 -42t-70 -17q-27 0 -62.5 14t-57.5 25q-53 29 -86 28q-27 0 -51.5 -26.5t-37.5 -55.5z" />
<glyph unicode="&#xd2;" d="M59 635q0 170 33 295t92.5 206t142.5 120.5t185 39.5q100 0 184 -39.5t143.5 -120.5t93.5 -206t34 -295t-34 -295t-93.5 -207t-143.5 -121t-184 -39q-102 0 -185 39t-142.5 121t-92.5 207t-33 295zM231 635q0 -250 68 -383t209 -133q143 0 215 133t72 383t-72 383 t-215 133q-141 0 -209 -133t-68 -383zM344 1592l108 108l234 -282l-86 -76z" />
<glyph unicode="&#xd3;" d="M59 635q0 170 33 295t92.5 206t142.5 120.5t185 39.5q100 0 184 -39.5t143.5 -120.5t93.5 -206t34 -295t-34 -295t-93.5 -207t-143.5 -121t-184 -39q-102 0 -185 39t-142.5 121t-92.5 207t-33 295zM231 635q0 -250 68 -383t209 -133q143 0 215 133t72 383t-72 383 t-215 133q-141 0 -209 -133t-68 -383zM366 1418l234 282l110 -108l-258 -250z" />
<glyph unicode="&#xd4;" d="M59 635q0 170 33 295t92.5 206t142.5 120.5t185 39.5q100 0 184 -39.5t143.5 -120.5t93.5 -206t34 -295t-34 -295t-93.5 -207t-143.5 -121t-184 -39q-102 0 -185 39t-142.5 121t-92.5 207t-33 295zM231 635q0 -250 68 -383t209 -133q143 0 215 133t72 383t-72 383 t-215 133q-141 0 -209 -133t-68 -383zM264 1430l248 262l248 -262l-70 -80l-178 160l-178 -160z" />
<glyph unicode="&#xd5;" d="M59 635q0 170 33 295t92.5 206t142.5 120.5t185 39.5q100 0 184 -39.5t143.5 -120.5t93.5 -206t34 -295t-34 -295t-93.5 -207t-143.5 -121t-184 -39q-102 0 -185 39t-142.5 121t-92.5 207t-33 295zM229 1454q6 23 21.5 51.5t38 53t53.5 42t68 17.5q27 0 62.5 -15 t57.5 -26q53 -29 86 -28q27 0 52.5 26.5t38.5 55.5l88 -46q-6 -23 -21.5 -51t-38 -53t-53.5 -42t-70 -17q-27 0 -62.5 14t-57.5 25q-53 29 -86 28q-27 0 -51.5 -26.5t-37.5 -55.5zM231 635q0 -250 68 -383t209 -133q143 0 215 133t72 383t-72 383t-215 133q-141 0 -209 -133 t-68 -383z" />
<glyph unicode="&#xd6;" d="M59 635q0 170 33 295t92.5 206t142.5 120.5t185 39.5q100 0 184 -39.5t143.5 -120.5t93.5 -206t34 -295t-34 -295t-93.5 -207t-143.5 -121t-184 -39q-102 0 -185 39t-142.5 121t-92.5 207t-33 295zM231 635q0 -250 68 -383t209 -133q143 0 215 133t72 383t-72 383 t-215 133q-141 0 -209 -133t-68 -383zM231 1520q0 47 33 76.5t74 29.5q43 0 74.5 -29.5t31.5 -76.5t-31.5 -78t-74.5 -31q-41 0 -74 31t-33 78zM580 1520q0 47 31.5 76.5t74.5 29.5t75 -29.5t32 -76.5t-32 -78t-75 -31t-74.5 31t-31.5 78z" />
<glyph unicode="&#xd7;" d="M143 270l267 269l-267 266l103 102l266 -266l266 266l103 -102l-267 -266l267 -269l-103 -102l-266 268l-266 -268z" />
<glyph unicode="&#xd8;" d="M59 635q0 170 33 295t92.5 206t142.5 120.5t185 39.5q115 0 211 -55l43 92l127 -63l-62 -125q63 -84 99.5 -210t36.5 -300q0 -170 -34 -295t-93.5 -207t-143.5 -121t-184 -39q-127 0 -221 58l-47 -99l-125 64l65 135q-61 82 -93 206t-32 298zM231 635q0 -98 6.5 -183 t28.5 -149l389 803q-31 25 -67.5 35t-79.5 10q-141 0 -209 -133t-68 -383zM356 166q31 -27 71 -37t81 -10q143 0 215 133t72 383q0 102 -11.5 188t-35.5 150z" />
<glyph unicode="&#xd9;" d="M98 436v832h168v-813q0 -96 17.5 -161t49.5 -103.5t77 -55t102 -16.5t102 16.5t77 55t49.5 103t17.5 161.5v813h168v-832q0 -106 -22.5 -192t-72 -145.5t-128 -92.5t-191.5 -33t-191.5 33t-128 92.5t-72 145.5t-22.5 192zM334 1592l108 108l234 -282l-86 -76z" />
<glyph unicode="&#xda;" d="M98 436v832h168v-813q0 -96 17.5 -161t49.5 -103.5t77 -55t102 -16.5t102 16.5t77 55t49.5 103t17.5 161.5v813h168v-832q0 -106 -22.5 -192t-72 -145.5t-128 -92.5t-191.5 -33t-191.5 33t-128 92.5t-72 145.5t-22.5 192zM366 1418l234 282l110 -108l-258 -250z" />
<glyph unicode="&#xdb;" d="M98 436v832h168v-813q0 -96 17.5 -161t49.5 -103.5t77 -55t102 -16.5t102 16.5t77 55t49.5 103t17.5 161.5v813h168v-832q0 -106 -22.5 -192t-72 -145.5t-128 -92.5t-191.5 -33t-191.5 33t-128 92.5t-72 145.5t-22.5 192zM264 1430l248 262l248 -262l-70 -80l-178 160 l-178 -160z" />
<glyph unicode="&#xdc;" d="M98 436v832h168v-813q0 -96 17.5 -161t49.5 -103.5t77 -55t102 -16.5t102 16.5t77 55t49.5 103t17.5 161.5v813h168v-832q0 -106 -22.5 -192t-72 -145.5t-128 -92.5t-191.5 -33t-191.5 33t-128 92.5t-72 145.5t-22.5 192zM231 1520q0 47 33 76.5t74 29.5q43 0 74.5 -29.5 t31.5 -76.5t-31.5 -78t-74.5 -31q-41 0 -74 31t-33 78zM580 1520q0 47 31.5 76.5t74.5 29.5t75 -29.5t32 -76.5t-32 -78t-75 -31t-74.5 31t-31.5 78z" />
<glyph unicode="&#xdd;" d="M27 1268h188q59 -172 136 -329t165 -323q94 174 167 331t132 321h184q-78 -201 -178 -391.5t-223 -401.5v-475h-168v471q-125 205 -226.5 399.5t-176.5 397.5zM366 1418l234 282l110 -108l-258 -250z" />
<glyph unicode="&#xde;" d="M150 0v1268h167v-211q63 6 125 6q236 0 363 -93t127 -274q0 -121 -36 -202.5t-101.5 -134t-158.5 -75t-206 -22.5h-113v-262h-167zM317 403h119q72 0 131.5 13.5t102.5 46.5t66.5 87t23.5 138q0 68 -25.5 112t-66.5 69.5t-93.5 35.5t-105.5 10h-87t-65 -2v-510z" />
<glyph unicode="&#xdf;" d="M145 0v1014q0 90 24 164.5t67 128t105 83t140 29.5q94 0 160 -23.5t104.5 -64.5t56 -94.5t17.5 -110.5q0 -49 -15.5 -90t-38 -74.5t-51 -62.5t-52.5 -55q-29 -33 -42.5 -54.5t-13.5 -52.5q0 -41 28 -67.5t68.5 -50t88 -48t88.5 -60.5t68.5 -88t27.5 -132q0 -156 -84 -235 t-262 -79q-33 0 -67 6.5t-63.5 14.5t-51 16.5t-31.5 14.5l28 149q10 -6 31 -15t47.5 -18.5t57 -15.5t61.5 -6q84 0 123 41t39 119q0 55 -27.5 91t-68.5 63.5t-90.5 51t-90.5 53t-68.5 69.5t-27.5 102q0 74 31 123t78 96q43 41 76.5 82t33.5 88q0 78 -37 124t-118 46 q-86 0 -132.5 -69.5t-46.5 -192.5v-1010h-170z" />
<glyph unicode="&#xe0;" d="M119 283q0 82 35.5 138t92 91t129.5 50.5t146 15.5q100 0 197 -23v47q0 43 -9.5 83t-35 73t-69.5 52t-113 19q-88 0 -154 -12t-100 -24l-21 139q35 16 116 28.5t173 12.5q106 0 179 -26.5t118 -74t63.5 -115t18.5 -147.5v-594q-59 -10 -156.5 -24.5t-200.5 -14.5 q-78 0 -151.5 13.5t-131 47.5t-92 93t-34.5 152zM291 285q0 -92 62.5 -128t168.5 -36q63 0 113.5 4t83.5 10v283q-33 10 -79 16t-97 6q-47 0 -92 -7t-80 -25.5t-57.5 -48t-22.5 -74.5zM334 1311l108 108l234 -282l-86 -76z" />
<glyph unicode="&#xe1;" d="M119 283q0 82 35.5 138t92 91t129.5 50.5t146 15.5q100 0 197 -23v47q0 43 -9.5 83t-35 73t-69.5 52t-113 19q-88 0 -154 -12t-100 -24l-21 139q35 16 116 28.5t173 12.5q106 0 179 -26.5t118 -74t63.5 -115t18.5 -147.5v-594q-59 -10 -156.5 -24.5t-200.5 -14.5 q-78 0 -151.5 13.5t-131 47.5t-92 93t-34.5 152zM291 285q0 -92 62.5 -128t168.5 -36q63 0 113.5 4t83.5 10v283q-33 10 -79 16t-97 6q-47 0 -92 -7t-80 -25.5t-57.5 -48t-22.5 -74.5zM385 1137l234 282l110 -108l-258 -250z" />
<glyph unicode="&#xe2;" d="M119 283q0 82 35.5 138t92 91t129.5 50.5t146 15.5q100 0 197 -23v47q0 43 -9.5 83t-35 73t-69.5 52t-113 19q-88 0 -154 -12t-100 -24l-21 139q35 16 116 28.5t173 12.5q106 0 179 -26.5t118 -74t63.5 -115t18.5 -147.5v-594q-59 -10 -156.5 -24.5t-200.5 -14.5 q-78 0 -151.5 13.5t-131 47.5t-92 93t-34.5 152zM282 1145l248 262l248 -262l-70 -80l-178 160l-178 -160zM291 285q0 -92 62.5 -128t168.5 -36q63 0 113.5 4t83.5 10v283q-33 10 -79 16t-97 6q-47 0 -92 -7t-80 -25.5t-57.5 -48t-22.5 -74.5z" />
<glyph unicode="&#xe3;" d="M119 283q0 82 35.5 138t92 91t129.5 50.5t146 15.5q100 0 197 -23v47q0 43 -9.5 83t-35 73t-69.5 52t-113 19q-88 0 -154 -12t-100 -24l-21 139q35 16 116 28.5t173 12.5q106 0 179 -26.5t118 -74t63.5 -115t18.5 -147.5v-594q-59 -10 -156.5 -24.5t-200.5 -14.5 q-78 0 -151.5 13.5t-131 47.5t-92 93t-34.5 152zM229 1169q6 23 21.5 51.5t38 53t53.5 42t68 17.5q27 0 62.5 -15t57.5 -26q53 -29 86 -28q27 0 52.5 26.5t38.5 55.5l88 -46q-6 -23 -21.5 -51t-38 -53t-53.5 -42t-70 -17q-27 0 -62.5 14t-57.5 25q-53 29 -86 28 q-27 0 -51.5 -26.5t-37.5 -55.5zM291 285q0 -92 62.5 -128t168.5 -36q63 0 113.5 4t83.5 10v283q-33 10 -79 16t-97 6q-47 0 -92 -7t-80 -25.5t-57.5 -48t-22.5 -74.5z" />
<glyph unicode="&#xe4;" d="M119 283q0 82 35.5 138t92 91t129.5 50.5t146 15.5q100 0 197 -23v47q0 43 -9.5 83t-35 73t-69.5 52t-113 19q-88 0 -154 -12t-100 -24l-21 139q35 16 116 28.5t173 12.5q106 0 179 -26.5t118 -74t63.5 -115t18.5 -147.5v-594q-59 -10 -156.5 -24.5t-200.5 -14.5 q-78 0 -151.5 13.5t-131 47.5t-92 93t-34.5 152zM231 1235q0 47 33 76.5t74 29.5q43 0 74.5 -29.5t31.5 -76.5t-31.5 -78t-74.5 -31q-41 0 -74 31t-33 78zM291 285q0 -92 62.5 -128t168.5 -36q63 0 113.5 4t83.5 10v283q-33 10 -79 16t-97 6q-47 0 -92 -7t-80 -25.5 t-57.5 -48t-22.5 -74.5zM580 1235q0 47 31.5 76.5t74.5 29.5t75 -29.5t32 -76.5t-32 -78t-75 -31t-74.5 31t-31.5 78z" />
<glyph unicode="&#xe5;" d="M119 283q0 82 35.5 138t92 91t129.5 50.5t146 15.5q100 0 197 -23v47q0 43 -9.5 83t-35 73t-69.5 52t-113 19q-88 0 -154 -12t-100 -24l-21 139q35 16 116 28.5t173 12.5q106 0 179 -26.5t118 -74t63.5 -115t18.5 -147.5v-594q-59 -10 -156.5 -24.5t-200.5 -14.5 q-78 0 -151.5 13.5t-131 47.5t-92 93t-34.5 152zM291 285q0 -92 62.5 -128t168.5 -36q63 0 113.5 4t83.5 10v283q-33 10 -79 16t-97 6q-47 0 -92 -7t-80 -25.5t-57.5 -48t-22.5 -74.5zM324 1239q0 86 56 136t132 50t132 -50t56 -136q0 -88 -56 -138t-132 -50t-132 50 t-56 138zM416 1239q0 -49 27.5 -75.5t68.5 -26.5t68.5 26.5t27.5 75.5q0 47 -27.5 73.5t-68.5 26.5t-68.5 -26.5t-27.5 -73.5z" />
<glyph unicode="&#xe6;" d="M63 270q0 63 17.5 119.5t52.5 98.5t85 66t118 24q25 0 54.5 -5.5t53.5 -17.5v47q0 96 -36.5 161.5t-114.5 65.5q-45 0 -88 -12t-60 -24l-18 139q18 16 72.5 28.5t107.5 12.5q90 0 147.5 -35t88.5 -96q33 61 76 96t96 35q264 0 264 -484v-27.5t-2 -31.5h-379 q0 -147 53.5 -224t136.5 -77q66 0 142 45l22 -143q-8 -8 -27.5 -17.5t-44 -17.5t-53 -13.5t-55.5 -5.5q-68 0 -120 24t-91 65q-55 -47 -112.5 -68t-116.5 -21q-68 0 -118 26t-84 67t-50.5 93t-16.5 107zM217 281q0 -61 32 -110.5t97 -49.5q35 0 75 16.5t68 42.5 q-23 51 -35 111.5t-16 126.5q-41 22 -86 22q-68 0 -101.5 -43t-33.5 -116zM602 567h223q0 76 -9 126t-24.5 81t-34 43t-34.5 12q-47 0 -84 -59t-37 -203z" />
<glyph unicode="&#xe7;" d="M100 473q0 129 41 223.5t113 155.5t167 91t204 30q70 0 138 -9.5t146 -33.5l-39 -146q-68 25 -124 32t-113 7q-74 0 -139.5 -19.5t-113.5 -61.5t-77 -108.5t-29 -160.5q0 -90 27 -154.5t75 -106.5t115.5 -62.5t149.5 -20.5q66 0 126 7t132 32l25 -141q-70 -25 -141.5 -36 t-157.5 -14l-23 -45q53 -25 76.5 -55.5t23.5 -89.5q0 -20 -9 -44t-30.5 -43t-57.5 -32.5t-89 -13.5q-47 0 -88 7t-63 17l20 105q23 -8 47.5 -13.5t54.5 -5.5q66 0 66 41t-76 64l-14 4q8 23 21.5 53.5t27.5 59.5q-186 27 -299 148.5t-113 338.5z" />
<glyph unicode="&#xe8;" d="M82 473q0 127 39 221t102.5 155.5t143 92.5t163.5 31q193 0 297.5 -120t104.5 -364v-59h-680q10 -147 97 -224t245 -77q90 0 153.5 14.5t96.5 30.5l22 -143q-31 -16 -110.5 -35t-180.5 -19q-123 0 -216 38t-154.5 103.5t-92 157t-30.5 197.5zM256 567h504 q0 121 -63.5 191.5t-168.5 70.5q-59 0 -107 -22.5t-83 -59t-55.5 -84t-26.5 -96.5zM334 1311l108 108l234 -282l-86 -76z" />
<glyph unicode="&#xe9;" d="M82 473q0 127 39 221t102.5 155.5t143 92.5t163.5 31q193 0 297.5 -120t104.5 -364v-59h-680q10 -147 97 -224t245 -77q90 0 153.5 14.5t96.5 30.5l22 -143q-31 -16 -110.5 -35t-180.5 -19q-123 0 -216 38t-154.5 103.5t-92 157t-30.5 197.5zM256 567h504 q0 121 -63.5 191.5t-168.5 70.5q-59 0 -107 -22.5t-83 -59t-55.5 -84t-26.5 -96.5zM385 1137l234 282l110 -108l-258 -250z" />
<glyph unicode="&#xea;" d="M82 473q0 127 39 221t102.5 155.5t143 92.5t163.5 31q193 0 297.5 -120t104.5 -364v-59h-680q10 -147 97 -224t245 -77q90 0 153.5 14.5t96.5 30.5l22 -143q-31 -16 -110.5 -35t-180.5 -19q-123 0 -216 38t-154.5 103.5t-92 157t-30.5 197.5zM256 567h504 q0 121 -63.5 191.5t-168.5 70.5q-59 0 -107 -22.5t-83 -59t-55.5 -84t-26.5 -96.5zM291 1145l248 262l248 -262l-70 -80l-178 160l-178 -160z" />
<glyph unicode="&#xeb;" d="M82 473q0 127 39 221t102.5 155.5t143 92.5t163.5 31q193 0 297.5 -120t104.5 -364v-59h-680q10 -147 97 -224t245 -77q90 0 153.5 14.5t96.5 30.5l22 -143q-31 -16 -110.5 -35t-180.5 -19q-123 0 -216 38t-154.5 103.5t-92 157t-30.5 197.5zM256 567h504 q0 121 -63.5 191.5t-168.5 70.5q-59 0 -107 -22.5t-83 -59t-55.5 -84t-26.5 -96.5zM258 1235q0 47 33 76.5t74 29.5q43 0 74.5 -29.5t31.5 -76.5t-31.5 -78t-74.5 -31q-41 0 -74 31t-33 78zM607 1235q0 47 31.5 76.5t74.5 29.5t75 -29.5t32 -76.5t-32 -78t-75 -31t-74.5 31 t-31.5 78z" />
<glyph unicode="&#xec;" d="M111 809v141h442v-583q0 -141 39 -189.5t117 -48.5q59 0 109 14.5t79 30.5l25 -143q-12 -6 -35 -15.5t-52.5 -17.5t-65.5 -14.5t-75 -6.5q-90 0 -149.5 25t-95 74t-50 121.5t-14.5 169.5v442h-274zM262 1311l108 108l234 -282l-86 -76z" />
<glyph unicode="&#xed;" d="M111 809v141h442v-583q0 -141 39 -189.5t117 -48.5q59 0 109 14.5t79 30.5l25 -143q-12 -6 -35 -15.5t-52.5 -17.5t-65.5 -14.5t-75 -6.5q-90 0 -149.5 25t-95 74t-50 121.5t-14.5 169.5v442h-274zM295 1137l234 282l110 -108l-258 -250z" />
<glyph unicode="&#xee;" d="M111 809v141h442v-583q0 -141 39 -189.5t117 -48.5q59 0 109 14.5t79 30.5l25 -143q-12 -6 -35 -15.5t-52.5 -17.5t-65.5 -14.5t-75 -6.5q-90 0 -149.5 25t-95 74t-50 121.5t-14.5 169.5v442h-274zM192 1145l248 262l248 -262l-70 -80l-178 160l-178 -160z" />
<glyph unicode="&#xef;" d="M111 809v141h442v-583q0 -141 39 -189.5t117 -48.5q59 0 109 14.5t79 30.5l25 -143q-12 -6 -35 -15.5t-52.5 -17.5t-65.5 -14.5t-75 -6.5q-90 0 -149.5 25t-95 74t-50 121.5t-14.5 169.5v442h-274zM159 1235q0 47 33 76.5t74 29.5q43 0 74.5 -29.5t31.5 -76.5t-31.5 -78 t-74.5 -31q-41 0 -74 31t-33 78zM508 1235q0 47 31.5 76.5t74.5 29.5t75 -29.5t32 -76.5t-32 -78t-75 -31t-74.5 31t-31.5 78z" />
<glyph unicode="&#xf0;" d="M113 418q0 233 98 356t268 123q78 0 137.5 -29.5t88.5 -56.5q-10 74 -39 141.5t-70 130.5l-219 -75l-43 114l188 66q-31 35 -62.5 66.5t-78.5 66.5l94 98q41 -27 93.5 -70.5t105.5 -109.5l225 78l43 -115l-197 -67q59 -100 99.5 -245t40.5 -329q0 -100 -17.5 -203.5 t-62.5 -188.5t-123 -138.5t-199 -53.5q-92 0 -161.5 39t-115.5 102.5t-69.5 141.5t-23.5 158zM281 424q0 -59 13 -114.5t38.5 -97.5t63.5 -66.5t87 -24.5q70 0 116 38t72.5 99t37 139t10.5 158q0 45 -1 63.5t-1 34.5q-51 55 -109.5 78t-105.5 23q-115 0 -168 -92.5 t-53 -237.5z" />
<glyph unicode="&#xf1;" d="M145 0v924q92 23 183.5 35t171.5 12q190 0 287.5 -98.5t97.5 -315.5v-557h-168v526q0 92 -16.5 149.5t-46 89.5t-71.5 44t-91 12q-41 0 -87.5 -5t-89.5 -13v-803h-170zM229 1169q6 23 21.5 51.5t38 53t53.5 42t68 17.5q27 0 62.5 -15t57.5 -26q53 -29 86 -28 q27 0 52.5 26.5t38.5 55.5l88 -46q-6 -23 -21.5 -51t-38 -53t-53.5 -42t-70 -17q-27 0 -62.5 14t-57.5 25q-53 29 -86 28q-27 0 -51.5 -26.5t-37.5 -55.5z" />
<glyph unicode="&#xf2;" d="M82 475q0 113 31.5 205t89 156.5t136.5 100.5t171 36q94 0 174 -36t137.5 -100.5t89 -156.5t31.5 -205t-31.5 -204t-89 -156.5t-137.5 -101.5t-174 -36q-92 0 -171 36t-136.5 101.5t-89 156.5t-31.5 204zM256 475q0 -160 68.5 -253t185.5 -93q119 0 188.5 93t69.5 253 q0 162 -69.5 255t-188.5 93q-117 0 -185.5 -93t-68.5 -255zM352 1311l108 108l234 -282l-86 -76z" />
<glyph unicode="&#xf3;" d="M82 475q0 113 31.5 205t89 156.5t136.5 100.5t171 36q94 0 174 -36t137.5 -100.5t89 -156.5t31.5 -205t-31.5 -204t-89 -156.5t-137.5 -101.5t-174 -36q-92 0 -171 36t-136.5 101.5t-89 156.5t-31.5 204zM256 475q0 -160 68.5 -253t185.5 -93q119 0 188.5 93t69.5 253 q0 162 -69.5 255t-188.5 93q-117 0 -185.5 -93t-68.5 -255zM366 1137l234 282l110 -108l-258 -250z" />
<glyph unicode="&#xf4;" d="M82 475q0 113 31.5 205t89 156.5t136.5 100.5t171 36q94 0 174 -36t137.5 -100.5t89 -156.5t31.5 -205t-31.5 -204t-89 -156.5t-137.5 -101.5t-174 -36q-92 0 -171 36t-136.5 101.5t-89 156.5t-31.5 204zM256 475q0 -160 68.5 -253t185.5 -93q119 0 188.5 93t69.5 253 q0 162 -69.5 255t-188.5 93q-117 0 -185.5 -93t-68.5 -255zM264 1145l248 262l248 -262l-70 -80l-178 160l-178 -160z" />
<glyph unicode="&#xf5;" d="M82 475q0 113 31.5 205t89 156.5t136.5 100.5t171 36q94 0 174 -36t137.5 -100.5t89 -156.5t31.5 -205t-31.5 -204t-89 -156.5t-137.5 -101.5t-174 -36q-92 0 -171 36t-136.5 101.5t-89 156.5t-31.5 204zM229 1169q6 23 21.5 51.5t38 53t53.5 42t68 17.5q27 0 62.5 -15 t57.5 -26q53 -29 86 -28q27 0 52.5 26.5t38.5 55.5l88 -46q-6 -23 -21.5 -51t-38 -53t-53.5 -42t-70 -17q-27 0 -62.5 14t-57.5 25q-53 29 -86 28q-27 0 -51.5 -26.5t-37.5 -55.5zM256 475q0 -160 68.5 -253t185.5 -93q119 0 188.5 93t69.5 253q0 162 -69.5 255t-188.5 93 q-117 0 -185.5 -93t-68.5 -255z" />
<glyph unicode="&#xf6;" d="M82 475q0 113 31.5 205t89 156.5t136.5 100.5t171 36q94 0 174 -36t137.5 -100.5t89 -156.5t31.5 -205t-31.5 -204t-89 -156.5t-137.5 -101.5t-174 -36q-92 0 -171 36t-136.5 101.5t-89 156.5t-31.5 204zM231 1235q0 47 33 76.5t74 29.5q43 0 74.5 -29.5t31.5 -76.5 t-31.5 -78t-74.5 -31q-41 0 -74 31t-33 78zM256 475q0 -160 68.5 -253t185.5 -93q119 0 188.5 93t69.5 253q0 162 -69.5 255t-188.5 93q-117 0 -185.5 -93t-68.5 -255zM580 1235q0 47 31.5 76.5t74.5 29.5t75 -29.5t32 -76.5t-32 -78t-75 -31t-74.5 31t-31.5 78z" />
<glyph unicode="&#xf7;" d="M94 467v143h838v-143h-838zM389 197q0 51 34 89t89 38q53 0 86 -38t33 -89q0 -49 -33 -86t-86 -37q-55 0 -89 36.5t-34 86.5zM389 877q0 51 34 87.5t89 36.5q53 0 86 -36.5t33 -87.5q0 -49 -33 -87t-86 -38q-55 0 -89 37.5t-34 87.5z" />
<glyph unicode="&#xf8;" d="M82 475q0 113 31.5 205t89 156.5t136.5 100.5t171 36q141 0 240 -74l86 117l96 -74l-94 -129q49 -63 76.5 -148t27.5 -190q0 -113 -31.5 -204t-89 -156.5t-137.5 -101.5t-174 -36q-68 0 -127 19.5t-111 54.5l-86 -117l-94 74l92 127q-47 66 -74.5 151t-27.5 189zM256 475 q0 -63 7 -110.5t26 -88.5l368 500q-29 25 -66.5 36t-80.5 11q-117 0 -185.5 -93t-68.5 -255zM365 174q29 -25 65.5 -35t79.5 -10q119 0 188.5 93t69.5 253q0 57 -7 108.5t-26 92.5z" />
<glyph unicode="&#xf9;" d="M139 416v534h168v-497q0 -176 52.5 -250t175.5 -74q27 0 54 2t52 5t43 6t25 5v803h170v-923q-55 -14 -146.5 -30.5t-214.5 -16.5q-109 0 -180.5 31.5t-116.5 90t-63.5 138t-18.5 176.5zM334 1311l108 108l234 -282l-86 -76z" />
<glyph unicode="&#xfa;" d="M139 416v534h168v-497q0 -176 52.5 -250t175.5 -74q27 0 54 2t52 5t43 6t25 5v803h170v-923q-55 -14 -146.5 -30.5t-214.5 -16.5q-109 0 -180.5 31.5t-116.5 90t-63.5 138t-18.5 176.5zM366 1137l234 282l110 -108l-258 -250z" />
<glyph unicode="&#xfb;" d="M139 416v534h168v-497q0 -176 52.5 -250t175.5 -74q27 0 54 2t52 5t43 6t25 5v803h170v-923q-55 -14 -146.5 -30.5t-214.5 -16.5q-109 0 -180.5 31.5t-116.5 90t-63.5 138t-18.5 176.5zM264 1145l248 262l248 -262l-70 -80l-178 160l-178 -160z" />
<glyph unicode="&#xfc;" d="M139 416v534h168v-497q0 -176 52.5 -250t175.5 -74q27 0 54 2t52 5t43 6t25 5v803h170v-923q-55 -14 -146.5 -30.5t-214.5 -16.5q-109 0 -180.5 31.5t-116.5 90t-63.5 138t-18.5 176.5zM231 1235q0 47 33 76.5t74 29.5q43 0 74.5 -29.5t31.5 -76.5t-31.5 -78t-74.5 -31 q-41 0 -74 31t-33 78zM580 1235q0 47 31.5 76.5t74.5 29.5t75 -29.5t32 -76.5t-32 -78t-75 -31t-74.5 31t-31.5 78z" />
<glyph unicode="&#xfd;" d="M74 -315l30 137q18 -10 52 -16.5t63 -6.5q100 0 156.5 44t103.5 145q-115 217 -215 465.5t-166 496.5h185q20 -82 47.5 -177t62.5 -195.5t75 -202t85 -193.5q33 94 61.5 186.5t53 185.5t49 190.5t51.5 205.5h176q-66 -266 -146.5 -516t-172.5 -463q-35 -82 -75 -141 t-87 -98t-106.5 -57.5t-135.5 -18.5q-39 0 -85 10t-62 19zM379 1137l234 282l110 -108l-258 -250z" />
<glyph unicode="&#xfe;" d="M145 -338v1729l170 28v-504q59 31 114.5 44.5t109.5 13.5q86 0 159.5 -34t128 -98.5t85 -156.5t30.5 -211q0 -109 -27.5 -200t-80 -156.5t-128 -102.5t-171.5 -37q-76 0 -133.5 18.5t-86.5 41.5v-375h-170zM315 201q29 -27 84.5 -49.5t114.5 -22.5q68 0 116 26.5 t78.5 72.5t45 108.5t14.5 136.5q0 88 -18.5 154.5t-52 109.5t-80 64.5t-99.5 21.5t-101 -18.5t-102 -52.5v-551z" />
<glyph unicode="&#xff;" d="M74 -315l30 137q18 -10 52 -16.5t63 -6.5q100 0 156.5 44t103.5 145q-115 217 -215 465.5t-166 496.5h185q20 -82 47.5 -177t62.5 -195.5t75 -202t85 -193.5q33 94 61.5 186.5t53 185.5t49 190.5t51.5 205.5h176q-66 -266 -146.5 -516t-172.5 -463q-35 -82 -75 -141 t-87 -98t-106.5 -57.5t-135.5 -18.5q-39 0 -85 10t-62 19zM262 1235q0 47 33 76.5t74 29.5q43 0 74.5 -29.5t31.5 -76.5t-31.5 -78t-74.5 -31q-41 0 -74 31t-33 78zM611 1235q0 47 31.5 76.5t74.5 29.5t75 -29.5t32 -76.5t-32 -78t-75 -31t-74.5 31t-31.5 78z" />
<glyph unicode="&#x152;" d="M55 616q0 328 106.5 496t291.5 168q23 0 53.5 -4t58.5 -8h396v-144h-263v-389h215v-143h-215v-449h289v-143h-422q-59 -12 -114 -12q-182 0 -289 150.5t-107 477.5zM219 616q0 -238 58.5 -360.5t173.5 -122.5q41 0 61 6t27 8v973q-27 10 -48.5 12.5t-39.5 2.5 q-55 0 -99.5 -37t-73 -104.5t-44 -163t-15.5 -214.5z" />
<glyph unicode="&#x153;" d="M63 479q0 92 15.5 181.5t46.5 159t80 111.5t117 42q76 0 131 -43t84 -142q37 96 86 140.5t108 44.5q248 0 248 -484v-26t-2 -33h-361q0 -57 11.5 -111.5t33 -96.5t55.5 -67.5t79 -25.5q27 0 57.5 8t77.5 37l22 -143q-41 -29 -88 -41.5t-92 -12.5q-72 0 -133 40t-102 145 q-35 -94 -82 -139.5t-133 -45.5q-68 0 -116 43t-80 114t-47.5 161t-15.5 184zM219 485q0 -68 7 -131t22.5 -114.5t39 -82t58.5 -30.5q31 0 51.5 28.5t33.5 77t18.5 109.5t5.5 127t-6.5 130.5t-20.5 114.5t-37.5 81.5t-56.5 31.5q-31 0 -53.5 -29.5t-36 -76.5t-19.5 -109.5 t-6 -126.5zM621 567h204q0 121 -26.5 191.5t-67.5 70.5q-51 0 -80.5 -72.5t-29.5 -189.5z" />
<glyph unicode="&#x178;" d="M27 1268h188q59 -172 136 -329t165 -323q94 174 167 331t132 321h184q-78 -201 -178 -391.5t-223 -401.5v-475h-168v471q-125 205 -226.5 399.5t-176.5 397.5zM235 1520q0 47 33 76.5t74 29.5q43 0 74.5 -29.5t31.5 -76.5t-31.5 -78t-74.5 -31q-41 0 -74 31t-33 78z M584 1520q0 47 31.5 76.5t74.5 29.5t75 -29.5t32 -76.5t-32 -78t-75 -31t-74.5 31t-31.5 78z" />
<glyph unicode="&#x2c6;" d="M264 1145l248 262l248 -262l-70 -80l-178 160l-178 -160z" />
<glyph unicode="&#x2dc;" d="M229 1169q6 23 21.5 51.5t38 53t53.5 42t68 17.5q27 0 62.5 -15t57.5 -26q53 -29 86 -28q27 0 52.5 26.5t38.5 55.5l88 -46q-6 -23 -21.5 -51t-38 -53t-53.5 -42t-70 -17q-27 0 -62.5 14t-57.5 25q-53 29 -86 28q-27 0 -51.5 -26.5t-37.5 -55.5z" />
<glyph unicode="&#x2000;" horiz-adv-x="850" />
<glyph unicode="&#x2001;" horiz-adv-x="1700" />
<glyph unicode="&#x2002;" horiz-adv-x="850" />
<glyph unicode="&#x2003;" horiz-adv-x="1700" />
<glyph unicode="&#x2004;" horiz-adv-x="566" />
<glyph unicode="&#x2005;" horiz-adv-x="425" />
<glyph unicode="&#x2006;" horiz-adv-x="283" />
<glyph unicode="&#x2007;" horiz-adv-x="283" />
<glyph unicode="&#x2008;" horiz-adv-x="212" />
<glyph unicode="&#x2009;" horiz-adv-x="340" />
<glyph unicode="&#x200a;" horiz-adv-x="94" />
<glyph unicode="&#x2010;" d="M287 440v160h450v-160h-450z" />
<glyph unicode="&#x2011;" d="M287 440v160h450v-160h-450z" />
<glyph unicode="&#x2012;" d="M287 440v160h450v-160h-450z" />
<glyph unicode="&#x2013;" d="M141 483v144h742v-144h-742z" />
<glyph unicode="&#x2014;" d="M0 483v144h1024v-144h-1024z" />
<glyph unicode="&#x2018;" d="M305 1061q0 59 23.5 123.5t70.5 121t120 96.5t169 52l31 -133q-37 -8 -73 -16.5t-66.5 -23.5t-55 -39.5t-39.5 -63.5q66 -6 95.5 -50.5t29.5 -87.5q0 -82 -47 -124t-104 -42q-76 0 -115 54.5t-39 132.5z" />
<glyph unicode="&#x2019;" d="M303 1001q37 8 73 16.5t66.5 24t55 39t39.5 64.5q-66 6 -95.5 50t-29.5 87q0 82 47 124t104 42q76 0 115 -54.5t39 -131.5q0 -59 -23.5 -124t-72 -121t-120 -96t-167.5 -53z" />
<glyph unicode="&#x201a;" d="M303 -162q37 8 73 16.5t66.5 24t55 39t39.5 64.5q-66 6 -95.5 50t-29.5 87q0 82 47 124t104 42q76 0 115 -54.5t39 -132.5q0 -59 -23.5 -123.5t-72 -121t-120 -96.5t-167.5 -52z" />
<glyph unicode="&#x201c;" d="M88 1071q0 57 17.5 114.5t57.5 104.5t106.5 82t166.5 47l29 -119q-35 -8 -67.5 -15t-61.5 -21.5t-51.5 -36t-34.5 -58.5q59 -6 89 -46t30 -89q0 -51 -33 -93t-103 -42q-59 0 -102 41t-43 131zM561 1071q0 57 17.5 114.5t57.5 104.5t106.5 82t166.5 47l29 -119 q-35 -8 -67.5 -15t-60.5 -21.5t-50.5 -36t-34.5 -58.5q59 -6 89 -46t30 -89q0 -51 -34 -93t-101 -42q-59 0 -103.5 41t-44.5 131z" />
<glyph unicode="&#x201d;" d="M86 1018q35 8 67.5 15t60.5 21.5t50.5 37t34.5 59.5q-59 4 -89 45t-30 88q0 51 34 93t101 42q59 0 103.5 -41t44.5 -131q0 -59 -17.5 -115.5t-57.5 -103.5t-106.5 -82t-166.5 -47zM559 1018q35 8 67.5 15t61.5 21.5t51.5 37t34.5 59.5q-59 4 -89 45t-30 88q0 51 33 93 t103 42q59 0 102 -41t43 -131q0 -59 -17.5 -115.5t-57.5 -103.5t-106.5 -82t-164.5 -47z" />
<glyph unicode="&#x201e;" d="M86 -152q70 14 128 37t85 95q-59 6 -89 46t-30 87q0 51 34 93t101 42q59 0 103.5 -40t44.5 -130q0 -59 -17.5 -115.5t-57.5 -103.5t-106.5 -82t-166.5 -47zM561 -152q35 8 68 15.5t61.5 22t51 36t34.5 58.5q-59 6 -89 46t-30 87q0 51 33 93t103 42q59 0 102 -40t43 -130 q0 -59 -17.5 -115.5t-57.5 -103.5t-106.5 -82t-166.5 -47z" />
<glyph unicode="&#x2022;" d="M233 647q0 57 19.5 110.5t55.5 94.5t87 64.5t117 23.5q63 0 115.5 -23.5t88.5 -64.5t55.5 -94.5t19.5 -110.5q0 -59 -19.5 -112.5t-55.5 -93.5t-88.5 -63.5t-115.5 -23.5q-66 0 -117 23.5t-87 63.5t-55.5 93.5t-19.5 112.5z" />
<glyph unicode="&#x2026;" d="M63 86q0 45 30 78t79 33t79 -33t30 -78t-30 -78t-79 -33t-79 33t-30 78zM408 86q0 45 28.5 78t77.5 33t78 -33t29 -78t-29 -78t-78 -33t-77.5 33t-28.5 78zM748 86q0 45 28.5 78t77.5 33t78 -33t29 -78t-29 -78t-78 -33t-77.5 33t-28.5 78z" />
<glyph unicode="&#x202f;" horiz-adv-x="340" />
<glyph unicode="&#x2039;" d="M295 520l285 404l118 -64l-202 -340l202 -340l-118 -65z" />
<glyph unicode="&#x203a;" d="M326 180l202 340l-202 340l118 64l285 -404l-285 -405z" />
<glyph unicode="&#x205f;" horiz-adv-x="425" />
<glyph unicode="&#x20ac;" d="M74 416v131h125q-2 20 -2 42.5v45.5v50.5t2 45.5h-125v131h143q37 217 154.5 322.5t312.5 105.5q82 0 134 -10t102 -29l-33 -143q-43 16 -95.5 26.5t-107.5 10.5q-139 0 -204.5 -77t-86.5 -206h408l-25 -131h-401q-2 -23 -2 -46v-50v-45.5t2 -42.5h366l-24 -131h-328 q27 -164 101.5 -227.5t197.5 -63.5q78 0 133.5 13.5t98.5 35.5l36 -145q-31 -16 -107.5 -35t-170.5 -19q-213 0 -324.5 117t-140.5 324h-139z" />
<glyph unicode="&#x2122;" d="M37 1165v103h381v-103h-131v-434h-119v434h-131zM457 731q6 102 12 178t13 137.5t14.5 113.5t17.5 108h111l90 -279l96 279h111q10 -55 17 -108.5t13 -115t11.5 -137.5t11.5 -176h-119q0 8 -1 53t-2 103.5t-3 120t-4 102.5l-86 -238h-92l-80 238q-4 -41 -6 -102.5 t-3 -120t-2.5 -103.5t-1.5 -53h-118z" />
<glyph unicode="&#xe000;" horiz-adv-x="952" d="M0 0v952h952v-952h-952z" />
<glyph unicode="&#xfb01;" d="M57 809v141h109v86q0 184 88 283.5t272 99.5q96 0 146 -12l-25 -147q-20 8 -43.5 11t-62.5 3q-115 0 -160 -64.5t-45 -175.5v-84h252v-141h-252v-809h-170v809h-109zM723 1235q0 51 31.5 81t76.5 30q47 0 79 -30t32 -81t-32 -82t-79 -31q-45 0 -76.5 31t-31.5 82zM748 0 v950h170v-950h-170z" />
<glyph unicode="&#xfb02;" d="M57 809v141h109v86q0 184 88 283.5t272 99.5q96 0 146 -12l-25 -147q-20 8 -43.5 11t-62.5 3q-115 0 -160 -64.5t-45 -175.5v-84h252v-141h-252v-809h-170v809h-109zM729 248v1143l170 28v-1143q0 -43 5 -69.5t17.5 -43t33 -24.5t51.5 -14l-23 -143q-139 4 -196.5 67.5 t-57.5 198.5z" />
</font>
</defs>
</svg>
